Доспехи бога: В поисках сокровищ / Кунг-фу йога / Gong fu yu jia (Стэнли Тун / Stanley Tong) [2017 г., боевик, комедия, детектив, приключения, BDRip-AVC] Dub [Лицензия] + Sub (Eng)

Ответить на тему
 
Автор
Сообщение

Пост 09-Янв-2018 10:21

[Q] 

aleksey99

--Доспехи бога: В поисках сокровищ / Кунг-фу йога / Gong fu yu jia-- Производство: Индия, Китай / Shinework Pictures, Sparkle Roll Media, Taihe Entertainment
Год выпуска: 2017 г.
Жанр: боевик, комедия, детектив, приключения
Продолжительность: 01:47:04--Мировая премьера: 26 января 2017
Российская премьера: 8 мая 2017, «Централ Партнершип»
Цифровой релиз: 08 июня 2017, «Capella Film»--Перевод: Профессиональный (полное дублирование) [Лицензия]--Режиссер: Стэнли Тун / Stanley Tong--В ролях: Джеки Чан, Аариф Ли, Исин Чжан, Сону Суд, Мия Муци, Диша Патани, Амира Дастур, Чжан Голи, Ху Мин, Эрик Цан, Фатих Угурлу, Дэмиэн Мевис, Кевин Ли, Томер Оз, Пол Филип Кларк, Эскиндир Тесфай--Описание: Профессора археологии Джека Си ждет по-настоящему увлекательное приключение. Нужно разгадать массу загадок и найти несметные сокровища древнего королевства. За самым большим кладом в истории охотится еще и могущественный преступный синдикат.
Джеку вместе с командой предстоит проявить умения и смекалку, и завоевать сердце-- --Качество видео: BDRip-AVC
Контейнер: MKV
Видео кодек: AVC/H.264
Аудио кодек: AC3
Видео: 1024x428 (2.40:1), 24.000 fps, x264 ~2888 kbps avg, 0.275 bit/pixel
Аудио: 48 kHz, AC3 Dolby Digital, 3/2 (L,C,R,l,r) + LFE ch, ~448 kbps
Cубтитры: английские.
Общее
Уникальный идентификатор : 211353229892550337019418089531547300320 (0x9F0126C4121CAAD5854F3B4BBF3BB1E0)
Полное имя : H:\Torrent2\Kung.Fu.Yoga.2017.BDRip(AVC).OlLanDGroup.mkv
Формат : Matroska
Версия формата : Version 2
Размер файла : 2,50 Гбайт
Продолжительность : 1 ч. 47 м.
Общий поток : 3336 Кбит/сек
Название фильма : Kung.Fu.Yoga.2017 #TorpedoUK#
Дата кодирования : UTC 2017-08-02 01:17:57
Программа кодирования : mkvmerge v7.8.0 ('River Man') 32bit built on Apr 3 2015 12:11:22
Библиотека кодирования : libebml v1.3.1 + libmatroska v1.4.2
Видео
Идентификатор : 1
Формат : AVC
Формат/Информация : Advanced Video Codec
Профиль формата : High@L4.1
Настройки формата : CABAC / 10 Ref Frames
Параметр CABAC формата : Да
Параметр RefFrames формата : 10 кадров
Идентификатор кодека : V_MPEG4/ISO/AVC
Продолжительность : 1 ч. 47 м.
Битрейт : 2888 Кбит/сек
Ширина : 1024 пикселя
Высота : 428 пикселей
Соотношение сторон : 2,40:1
Режим частоты кадров : Постоянный
Частота кадров : 24,000 кадра/сек
Цветовое пространство : YUV
Субдискретизация насыщенности : 4:2:0
Битовая глубина : 8 бит
Тип развёртки : Прогрессивная
Бит/(Пиксели*Кадры) : 0.275
Размер потока : 2,11 Гбайт (85%)
Библиотека кодирования : x264 core 146 r2538 121396c
Настройки программы : cabac=1 / ref=10 / deblock=1:-3:-3 / analyse=0x3:0x133 / me=umh / subme=11 / psy=1 / psy_rd=1.00:0.07 / mixed_ref=1 / me_range=48 / chroma_me=1 / trellis=2 / 8x8dct=1 / cqm=0 / deadzone=21,11 / fast_pskip=0 / chroma_qp_offset=-3 / threads=6 / lookahead_threads=1 / sliced_threads=0 / nr=0 / decimate=0 / interlaced=0 / bluray_compat=0 / constrained_intra=0 / bframes=10 / b_pyramid=2 / b_adapt=2 / b_bias=0 / direct=3 / weightb=1 / open_gop=0 / weightp=2 / keyint=240 / keyint_min=24 / scenecut=40 / intra_refresh=0 / rc_lookahead=40 / rc=2pass / mbtree=0 / bitrate=2888 / ratetol=1.0 / qcomp=0.60 / qpmin=0 / qpmax=69 / qpstep=4 / cplxblur=20.0 / qblur=0.5 / vbv_maxrate=50000 / vbv_bufsize=62500 / nal_hrd=none / filler=0 / ip_ratio=1.40 / pb_ratio=1.30 / aq=1:1.00
Язык : English
Default : Да
Forced : Нет
Аудио
Идентификатор : 2
Формат : AC-3
Формат/Информация : Audio Coding 3
Идентификатор кодека : A_AC3
Продолжительность : 1 ч. 47 м.
Вид битрейта : Постоянный
Битрейт : 448 Кбит/сек
Каналы : 6 каналов
Расположение каналов : Front: L C R, Side: L R, LFE
Частота : 48,0 КГц
Частота кадров : 31,250 кадров/сек (1536 SPF)
Битовая глубина : 16 бит
Метод сжатия : С потерями
Размер потока : 343 Мбайт (13%)
Заголовок : License
Язык : Russian
ServiceKind/String : Complete Main
Default : Да
Forced : Нет
Текст
Идентификатор : 3
Формат : UTF-8
Идентификатор кодека : S_TEXT/UTF8
Идентификатор кодека/Информация : UTF-8 Plain Text
Заголовок : Full
Язык : English
Default : Нет
Forced : Нет
Меню
00:00:00.000 : en:Chapter 01
00:10:49.708 : en:Chapter 02
00:19:09.125 : en:Chapter 03
00:27:54.708 : en:Chapter 04
00:36:04.125 : en:Chapter 05
00:43:04.416 : en:Chapter 06
00:56:54.166 : en:Chapter 07
01:03:21.083 : en:Chapter 08
01:11:30.750 : en:Chapter 09
01:22:44.166 : en:Chapter 10
01:30:59.291 : en:Chapter 11
01:38:54.541 : en:Chapter 12
Трейлер
Download / Скачать

Хотите скачать бесплатно? Зарегистрируйтесь на сайте (ссылка на регистрацию). Pirat.ca - самый быстрый торрент трекер в рунете!

Как скачивать  ·   Что такое торрент  ·   Рейтинг и ограничения

Кристина119

Гроза морей

Пост 09-Янв-2018 12:09 (спустя 1 час 48 минут)

[Q] 

Джеки ура Лови бочку
[Профиль]  [ЛС] 

Амангельды

38064

Пост 12-Янв-2018 04:16 (спустя 2 дня 16 часов)

[Q] 

А будут зажигательные песни, дабы пуститься в пляс?

_________________

Товарищ, верь, пройдет она,
Так называемая гласность.
И вот тогда госбезопасность
Припомнит ваши имена
Раздачи от Амангельды - ТЫНЦ
[Профиль]  [ЛС] 

StenST

Корсар

Пост 12-Янв-2018 23:54 (спустя 19 часов)

[Q] 

816549А будут зажигательные песни, дабы пуститься в пляс?
А кудой наша жизнь без старых сапог? ag
[Профиль]  [ЛС] 

SwordFish

Морской Волк

1034

Пост 16-Янв-2018 19:50 (спустя 3 дня)

[Q] 

Мда... Сдает Джеки позиции. Фильм не плохой, в принипе смотреть разок можно.
PS: Ну и куда же без зажигатльных индийских песен и плясок...
[Профиль]  [ЛС] 

karapuz74

Штурман

Пост 26-Янв-2018 11:54 (спустя 9 дней)

[Q] 

Смотрел перематывая. Сдал позиции Джеки, сдал. Раньше у него фильмы куда интереснее были. Этот фууу... Особенно концовка. Отстой полный.
[Профиль]  [ЛС] 
Показать сообщения:    
Ответить на тему

Текущее время: Сегодня 18:37

Часовой пояс: GMT + 4



Вы не можете начинать темы
Вы не можете отвечать на сообщения
Вы не можете редактировать свои сообщения
Вы не можете удалять свои сообщения
Вы не можете голосовать в опросах
Вы не можете прикреплять файлы к сообщениям
Вы не можете скачивать файлы

Майнать ▼