Квнщики (Илья Аксенов) [2018 г., драма, комедия, WEBRip] Original (RUS)

Ответить на тему
 
Автор
Сообщение

Пост 12-Янв-2018 09:54

[Q] 

aleksey99

--Квнщики--«Их этому никто не учил»-- Производство: Россия, Good luck Production
Год выпуска: 2018 г.
Жанр: драма, комедия
Продолжительность: 02:05:53--Режиссер: Илья Аксенов--В ролях: Денис Давыдов, Дарья Руденок, Денис Власенко, Михаил Мелин, Илья Сенчуров, Никита Лобанов, Кирилл Лопаткин, Роман Маякин, Андрей Бурковский--Описание: Первый полнометражный фильм о КВН.
Уникальный проект, снятый на фестивале КВН в Сочи без разрешения организаторов фестиваля. История настоящего пути к вершинам самой молодежной игры.-- --Качество видео: WEBRip
Контейнер: AVI
Видео кодек: XviD
Аудио кодек: AC3
Видео: 720x304 (2.37:1), 25 fps, XviD build 67 ~2075 kbps avg, 0.38 bit/pixel
Аудио: 48 kHz, AC3 Dolby Digital, 2/0 (L,R) ch, ~256 kbps
Cубтитры: отсутствуют
Общее
Полное имя : H:\Torrent2\KVNshiki 2018 WEBRip.avi
Формат : AVI
Формат/Информация : Audio Video Interleave
Профиль формата : OpenDML
Размер файла : 2,06 Гбайт
Продолжительность : 2 ч. 5 м.
Общий поток : 2342 Кбит/сек
Программа кодирования : Lavf57.71.100
Примечание : Rip by Basma4i
Видео
Идентификатор : 0
Формат : MPEG-4 Visual
Профиль формата : Advanced [email protected]
Параметр BVOP формата : Нет
Параметр QPel формата : Нет
Параметр GMC формата : Без точки перехода
Параметр матрицы формата : Default (H.263)
Идентификатор кодека : XVID
Идентификатор кодека/Подсказка : XviD
Продолжительность : 2 ч. 5 м.
Битрейт : 2075 Кбит/сек
Ширина : 720 пикселей
Высота : 304 пикселя
Соотношение сторон : 2,40:1
Частота кадров : 25,000 кадров/сек
Цветовое пространство : YUV
Субдискретизация насыщенности : 4:2:0
Битовая глубина : 8 бит
Тип развёртки : Прогрессивная
Метод сжатия : С потерями
Бит/(Пиксели*Кадры) : 0.379
Размер потока : 1,82 Гбайт (89%)
Библиотека кодирования : XviD 67
Аудио
Идентификатор : 1
Формат : AC-3
Формат/Информация : Audio Coding 3
Расширение режима : CM (complete main)
Параметр Endianness формата : Big
Идентификатор кодека : 2000
Продолжительность : 2 ч. 5 м.
Вид битрейта : Постоянный
Битрейт : 256 Кбит/сек
Каналы : 2 канала
Расположение каналов : Front: L R
Частота : 48,0 КГц
Битовая глубина : 16 бит
Метод сжатия : С потерями
Размер потока : 231 Мбайт (11%)
Выравнивание : Соединение по промежуткам
Продолжительность промежутка : 32 мс. (0,80 видеокадр)
Трейлер
Download / Скачать

Хотите скачать бесплатно? Зарегистрируйтесь на сайте (ссылка на регистрацию). Pirat.ca - самый быстрый торрент трекер в рунете!

Как скачивать  ·   Что такое торрент  ·   Рейтинг и ограничения

gaws

Лоцман

Пост 12-Янв-2018 21:33 (спустя 11 часов)

[Q] 

отстой, отмыв бабла через эту лажу, я думаю, что сами актеры не верят в успех этого говна
[Профиль]  [ЛС] 

Gari4

Флибустьер

Пост 13-Янв-2018 07:57 (спустя 10 часов)

[Q] 

Такая чушь....

_________________
РЕБЯТ!! Подпишитесь на канал! Вам все равно, а мне приятно))
https://www.youtube.com/channel/UCHdnAvKKhkxeJvg3DQ...ew_as=subscriber
[Профиль]  [ЛС] 

savicus

Корсар

Пост 14-Янв-2018 13:13 (спустя 1 день 5 часов)

[Q] 

Вытерпел минут 7, потом по-перематывал, и удалил.
Не рекомендую даже качать...
[Профиль]  [ЛС] 

lexaspirit

Пост 12-Мар-2018 23:33 (спустя 1 месяц 29 дней)

[Q] 

Впринципе согласен с предыдущими коментариями. По названию думал что должно быть нормально, а в итоге ни о чем

_________________
-------------------- ----------------------
[Профиль]  [ЛС] 

tilebok

Корсар

Пост 24-Мар-2018 09:03 (спустя 11 дней)

[Q] 

есть смысл качать?
[Профиль]  [ЛС] 

Skala973

Флибустьер

Пост 18-Апр-2018 23:27 (спустя 25 дней)

[Q] 

Да это по сути и не фильм даже, а так, способ отмыть бабки, и попытка поднять рейтинг КВН.
Ну что такое КВН?
Это раньше, когда они действительно затрагивали злободневные темы, был смысл их смотреть, чтобы хоть где-то услышать правду.
Вроде как от юродивых в старину, так и в КВН было.
А сейчас?
Да цензура такая мощная! что в СССР даже не снилась. Если бы в СССР была такая цензура, то и СССР бы до сих пор был бы ведущим игроком на мировой арене.
Не фильм это, а так, пустое времяпровождение.
За раздачу +10, видно что старался релизёр. А фильм (если его можно так назвать), вообще оценки не достоин.
[Профиль]  [ЛС] 
Показать сообщения:    
Ответить на тему

Текущее время: Сегодня 08:46

Часовой пояс: GMT + 4



Вы не можете начинать темы
Вы не можете отвечать на сообщения
Вы не можете редактировать свои сообщения
Вы не можете удалять свои сообщения
Вы не можете голосовать в опросах
Вы не можете прикреплять файлы к сообщениям
Вы не можете скачивать файлы

Майнать ▼