Роковое искушение / The Beguiled (София Коппола / Sofia Coppola) [2017 г., драма, военный, BDRip] Dub [Лицензия] + Sub (Rus)

Ответить на тему
 
Автор
Сообщение

Пост 23-Ноя-2017 14:54

[Q] 

ara1205

-Роковое искушение / The Beguiled-- Производство: США
Год выпуска: 2017 г.
Жанр: драма, военный
Продолжительность: 01:33:33
Перевод: Профессиональный (полное дублирование) [Лицензия]-Режиссёр: София Коппола / Sofia Coppola-В ролях: Колин Фаррелл, Николь Кидман, Кирстен Данст, Элль Фэннинг, Уна Лоуренс, Энгаури Райс, Эддисон Рики, Эмма Ховард, Уэйн Пер, Мэтт Стори-Описание: Закрытый пансион для девушек был надежно спрятан от внешнего мира до того дня, пока искавший помощи и укрытия молодой человек не ступил за его ворота. С этого мгновения таинственный особняк оказался в плену рокового искушения…- -Качество видео: BDRip
Контейнер: AVI
Видео кодек: XviD
Аудио кодек: AC3
Видео: 720х432, 23,976 fps, 1767 Kbps, 0.237 bits/pixel
Аудио: 48 kHz, AC3 Dolby Digital, 6 ch, 448 Kbps
Cубтитры: русские
Формат субтитров: softsub (SRT) (отдельно)-
Общее
Полное имя : C:\Users\Admin\Pictures\Роковое искушение\Rokovoe.Iskyshenie.2017.BDRip.[pirat.ca]\Rokovoe.Iskyshenie.2017.BDRip.[pirat.ca].avi
Формат : AVI
Формат/Информация : Audio Video Interleave
Размер файла : 1,45 Гбайт
Продолжительность : 1 ч. 33 м.
Общий поток : 2225 Кбит/сек
Программа кодирования : VirtualDubMod 1.5.10.2 (build 2540/release)
Библиотека кодирования : VirtualDubMod build 2540/release
Видео
Идентификатор : 0
Формат : MPEG-4 Visual
Профиль формата : Advanced Simple@L5
Параметр BVOP формата : 1
Параметр QPel формата : Нет
Параметр GMC формата : Без точки перехода
Параметр матрицы формата : Выборочная
Идентификатор кодека : XVID
Идентификатор кодека/Подсказка : XviD
Продолжительность : 1 ч. 33 м.
Битрейт : 1767 Кбит/сек
Ширина : 720 пикселей
Высота : 432 пикселя
Соотношение сторон : 1,667
Частота кадров : 23,976 кадра/сек
Цветовое пространство : YUV
Субдискретизация насыщенности : 4:2:0
Битовая глубина : 8 бит
Тип развёртки : Прогрессивная
Метод сжатия : С потерями
Бит/(Пиксели*Кадры) : 0.237
Размер потока : 1,15 Гбайт (79%)
Библиотека кодирования : XviD 73
Аудио
Идентификатор : 1
Формат : AC-3
Формат/Информация : Audio Coding 3
Расширение режима : CM (complete main)
Параметр Endianness формата : Big
Идентификатор кодека : 2000
Продолжительность : 1 ч. 33 м.
Вид битрейта : Постоянный
Битрейт : 448 Кбит/сек
Каналы : 6 каналов
Расположение каналов : Front: L C R, Side: L R, LFE
Частота : 48,0 КГц
Битовая глубина : 16 бит
Метод сжатия : С потерями
Размер потока : 300 Мбайт (20%)
Выравнивание : Разделение по промежуткам
Продолжительность промежутка : 42 мс. (1,00 видеокадр)
Время предзагрузки промежутка : 500 мс.
-
-
Download / Скачать

Хотите скачать бесплатно? Зарегистрируйтесь на сайте (ссылка на регистрацию). Pirat.ca - самый быстрый торрент трекер в рунете!

Как скачивать  ·   Что такое торрент  ·   Рейтинг и ограничения

clark

Флибустьер

Пост 23-Ноя-2017 23:59 (спустя 9 часов)

[Q] 

посмотрим спасибо

_________________
Последним смеётся тот, кто стреляет первым.
[Профиль]  [ЛС] 

Dobryak

Штурман

Пост 24-Ноя-2017 04:02 (спустя 4 часа)

[Q] 

Тема оголённой женской щиколотки раскрыта?
[Профиль]  [ЛС] 

ketzer

Корсар

Пост 25-Ноя-2017 07:03 (спустя 1 день 3 часа)

[Q] 

Софочку забираю не глядя!
[Профиль]  [ЛС] 

xgoliy

Морской Волк

Пост 27-Ноя-2017 17:15 (спустя 2 дня 10 часов)

[Q] 

Неоднозначный фильм .... Автору респект!!! Лови бочку
[Профиль]  [ЛС] 

hevard

Гроза морей

2163

Пост 06-Дек-2017 05:07 (спустя 8 дней)

[Q] 

Жанр: драма, военный - что в этом фильме от жанра "военный"? Война за Колина Фаррела?

_________________
-Я старый пират и не знаю слов лицензионного соглашения...
[Профиль]  [ЛС] 

Пост 13-Янв-2018 10:32 (спустя 1 месяц 7 дней)

Топик был перенесен из форума Новинки (HD|DVD|BD| TV|SAT|PDTV| - Rips) в форум Фильмы 2010 - 2017 г.г.
aleksey99
 

exelero07

Гроза морей

Пост 07-Мар-2018 01:23 (спустя 3 месяца)

[Q] 

Фильм не о военных действиях, но актеры хороши.
[Профиль]  [ЛС] 
Показать сообщения:    
Ответить на тему

Текущее время: Сегодня 10:55

Часовой пояс: GMT + 4



Вы не можете начинать темы
Вы не можете отвечать на сообщения
Вы не можете редактировать свои сообщения
Вы не можете удалять свои сообщения
Вы не можете голосовать в опросах
Вы не можете прикреплять файлы к сообщениям
Вы не можете скачивать файлы

Майнать ▼