Уважаемый Гость!
Вы можете поддержать проект и зарегистрироваться у наших партнеров - онлайн-стратегия MyLands. При регистрации в игре Вы получите код, который сможете активировать после регистрации на pirat.ca и получить 1000 дублонов.

Ваш код:
a2be712514e46eae310418ece8905345dbacafb8
 
     

Мадам / Madame (Аманда Штерс/ Amanda Sthers) [2017 г., драма, комедия, WEB-DLRip] Dub [iTunes]

Ответить на тему
 
Автор
Сообщение

Пост 23-Ноя-2017 15:15

[Q] 

ara1205

-Мадам / Madame-- Производство: Франция
Год выпуска: 2017 г.
Жанр: драма, комедия
Продолжительность: 01:31:31
Мировая премьера: 12 июня 2017
Российская премьера: 14 сентября 2017
Перевод: Профессиональный (полное дублирование) [iTunes]-Режиссёр: Аманда Штерс/ Amanda Sthers-В ролях: Тони Коллетт, Харви Кейтель, Росси де Пальма, Майкл Смайли, Кристиан Абарт, Сью Канн, Жозефин де ла Буме, Тим Феллингэм, Виолэйн Джилиберт, Том Хьюз-Описание: Богатая пара в Париже собирает гостей на званый ужин. Ждут мэра Лондона и других аристократов, но за столом 13 приборов. И хозяйка, из суеверия, просит служанку присоединиться к трапезе. Мария оказывается за столом инкогнито, и в нее влюбляется богатый коллекционер искусства.- -Качество видео: WEB-DLRip
Контейнер: AVI
Видео кодек: XviD
Аудио кодек: AC3
Видео: 720х304, 24 fps, 1900 Kbps, 0.362 bits/pixel
Аудио: 48 kHz, AC3 Dolby Digital, 6 ch, 384 Kbps
Cубтитры: отсутствуют-
Общее
Полное имя : C:\Users\Admin\Pictures\Мадам\Madame.2017.WEB-DLRip.[pirat.ca].avi
Формат : AVI
Формат/Информация : Audio Video Interleave
Размер файла : 1,46 Гбайт
Продолжительность : 1 ч. 31 м.
Общий поток : 2293 Кбит/сек
Программа кодирования : VirtualDubMod 1.5.10.2 (build 2540/release)
Библиотека кодирования : VirtualDubMod build 2540/release
Видео
Идентификатор : 0
Формат : MPEG-4 Visual
Профиль формата : Advanced [email protected]
Параметр BVOP формата : 1
Параметр QPel формата : Нет
Параметр GMC формата : Без точки перехода
Параметр матрицы формата : Выборочная
Идентификатор кодека : XVID
Идентификатор кодека/Подсказка : XviD
Продолжительность : 1 ч. 31 м.
Битрейт : 1900 Кбит/сек
Ширина : 720 пикселей
Высота : 304 пикселя
Соотношение сторон : 2,35:1
Частота кадров : 24,000 кадра/сек
Цветовое пространство : YUV
Субдискретизация насыщенности : 4:2:0
Битовая глубина : 8 бит
Тип развёртки : Прогрессивная
Метод сжатия : С потерями
Бит/(Пиксели*Кадры) : 0.362
Размер потока : 1,21 Гбайт (83%)
Библиотека кодирования : XviD 73
Аудио
Идентификатор : 1
Формат : AC-3
Формат/Информация : Audio Coding 3
Расширение режима : CM (complete main)
Параметр Endianness формата : Big
Идентификатор кодека : 2000
Продолжительность : 1 ч. 31 м.
Вид битрейта : Постоянный
Битрейт : 384 Кбит/сек
Каналы : 6 каналов
Расположение каналов : Front: L C R, Side: L R, LFE
Частота : 48,0 КГц
Битовая глубина : 16 бит
Метод сжатия : С потерями
Размер потока : 250 Мбайт (17%)
Выравнивание : Разделение по промежуткам
Продолжительность промежутка : 42 мс. (1,00 видеокадр)
Время предзагрузки промежутка : 500 мс.
-
-
Download / Скачать

Хотите скачать бесплатно? Зарегистрируйтесь на сайте (ссылка на регистрацию). Pirat.ca - самый быстрый торрент трекер в рунете!

Как скачивать  ·   Что такое торрент  ·   Рейтинг и ограничения

Madwarg

Корсар

Пост 08-Дек-2017 23:59 (спустя 15 дней)

[Q] 

очередная экранизация Золушки...
[Профиль]  [ЛС] 

Пост 13-Янв-2018 10:32 (спустя 1 месяц 4 дня)

Топик был перенесен из форума Новинки (HD|DVD|BD| TV|SAT|PDTV| - Rips) в форум Фильмы 2010 - 2017 г.г.
aleksey99
 
Показать сообщения:    
Ответить на тему

Текущее время: Сегодня 16:23

Часовой пояс: GMT + 4



Вы не можете начинать темы
Вы не можете отвечать на сообщения
Вы не можете редактировать свои сообщения
Вы не можете удалять свои сообщения
Вы не можете голосовать в опросах
Вы не можете прикреплять файлы к сообщениям
Вы не можете скачивать файлы

▼ Вниз