Уважаемый Гость!
Вы можете поддержать проект и зарегистрироваться у наших партнеров - онлайн-стратегия MyLands. При регистрации в игре Вы получите код, который сможете активировать после регистрации на pirat.ca и получить 1000 дублонов.

Ваш код:
3c0ec4e8df92a42ad49dced7d63f60af01d156e8
 
     

Тюльпанная лихорадка / Tulip Fever (Джастин Чадвик / Justin Chadwick) [2017 г., драма, мелодрама, BDRip] DUB [ iTunes]

Ответить на тему
 
Автор
Сообщение

Пост 29-Ноя-2017 12:32

[Q] 

vamo

Шкипер

Тюльпанная лихорадка / Tulip Fever Производство: Великобритания, США / Worldview Entertainment, Paramount Pictures, Ruby Films
Год выпуска: 2017
Жанр: драма, мелодрама
Продолжительность: 01:44:58
Перевод Дублированный [iTunes]
Режиссёр: Джастин Чадвик / Justin Chadwick
В ролях: Алисия Викандер, Дэйн ДеХаан, Кристоф Вальц, Зак Галифианакис, Джуди Денч, Холлидей Грейнджер, Джек О’Коннелл, Мэттью Моррисон, Кара Делевинь, Том Холландер
Описание: Голландия, 17 век. Луковицы прекрасных цветов становятся причиной баснословного богатства или унизительной нищеты. Жители Амстердама готовы ради них на все: обман, подлог… и даже убийство. В атмосфере всеобщей тюльпаномании страсть бедного художника к молодой обольстительной жене стареющего богатого торговца может завести очень далеко. Качество видео: BDRip [исходник BDRemux 1080p]
Контейнер: AVI
Видео кодек: XviD
Аудио кодек: AC3
Видео: 720x304 (2.37:1), 23.976 fps, XviD build 67 ~2108 kbps avg, 0.40 bit/pixel
Аудио #1: 48 kHz, AC3 Dolby Digital, 3/2 (L,C,R,l,r) + LFE ch, ~384 kbps
Аудио #2: 48 kHz, AC3 Dolby Digital, 3/2 (L,C,R,l,r) + LFE ch, ~448 kbps
Субтитры: английские [внешние]
Формат : AVI
Формат/Информация : Audio Video Interleave
Профиль формата : OpenDML
Размер файла : 2,16 Гбайт
Продолжительность : 1 ч. 44 м.
Общий поток : 2944 Кбит/сек
Программа кодирования : Lavf57.71.100
Примечание : Rip by Basma4i
Видео
Идентификатор : 0
Формат : MPEG-4 Visual
Профиль формата : Advanced [email protected]
Параметр BVOP формата : Нет
Параметр QPel формата : Нет
Параметр GMC формата : Без точки перехода
Параметр матрицы формата : Default (H.263)
Идентификатор кодека : XVID
Идентификатор кодека/Подсказка : XviD
Продолжительность : 1 ч. 44 м.
Битрейт : 2099 Кбит/сек
Ширина : 720 пикселей
Высота : 304 пикселя
Соотношение сторон : 2,40:1
Частота кадров : 23,976 (24000/1001) кадра/сек
Цветовое пространство : YUV
Субдискретизация насыщенности : 4:2:0
Битовая глубина : 8 бит
Тип развёртки : Прогрессивная
Метод сжатия : С потерями
Бит/(Пиксели*Кадры) : 0.400
Размер потока : 1,54 Гбайт (71%)
Заголовок : Tulip Fever 2017 720p BluRay DD5.1 x264-DON
Библиотека кодирования : XviD 67
Аудио #1
Идентификатор : 1
Формат : AC-3
Формат/Информация : Audio Coding 3
Расширение режима : CM (complete main)
Параметр Endianness формата : Big
Идентификатор кодека : 2000
Продолжительность : 1 ч. 44 м.
Вид битрейта : Постоянный
Битрейт : 384 Кбит/сек
Каналы : 6 каналов
Расположение каналов : Front: L C R, Side: L R, LFE
Частота : 48,0 КГц
Частота кадров : 31,250 кадров/сек (1536 spf)
Битовая глубина : 16 бит
Метод сжатия : С потерями
Размер потока : 288 Мбайт (13%)
Выравнивание : Соединение по промежуткам
Продолжительность промежутка : 32 мс. (0,77 видеокадр)
Аудио #2
Идентификатор : 2
Формат : AC-3
Формат/Информация : Audio Coding 3
Расширение режима : CM (complete main)
Параметр Endianness формата : Big
Идентификатор кодека : 2000
Продолжительность : 1 ч. 44 м.
Вид битрейта : Постоянный
Битрейт : 448 Кбит/сек
Каналы : 6 каналов
Расположение каналов : Front: L C R, Side: L R, LFE
Частота : 48,0 КГц
Частота кадров : 31,250 кадров/сек (1536 spf)
Битовая глубина : 16 бит
Метод сжатия : С потерями
Размер потока : 336 Мбайт (15%)
Выравнивание : Соединение по промежуткам
Продолжительность промежутка : 32 мс. (0,77 видеокадр)
Download / Скачать

Хотите скачать бесплатно? Зарегистрируйтесь на сайте (ссылка на регистрацию). Pirat.ca - самый быстрый торрент трекер в рунете!

Как скачивать  ·   Что такое торрент  ·   Рейтинг и ограничения

jofrei53

Флибустьер

Пост 29-Ноя-2017 21:23 (спустя 8 часов)

[Q] 

Спасибо! Заинтересовало.... Автору респект!!! Супер!
[Профиль]  [ЛС] 

aka_johnny

Флибустьер

Пост 01-Дек-2017 03:51 (спустя 1 день 6 часов)

[Q] 

так себе фильмец, там вообще должны были играть Джуд Лоу и Кира Найтли))))
[Профиль]  [ЛС] 

Ambeg

Корсар

Пост 01-Дек-2017 20:29 (спустя 16 часов)

[Q] 

Скрины Перезалей
[Профиль]  [ЛС] 

Пост 13-Янв-2018 10:32 (спустя 1 месяц 11 дней)

Топик был перенесен из форума Новинки (HD|DVD|BD| TV|SAT|PDTV| - Rips) в форум Фильмы 2010 - 2017 г.г.
aleksey99
 
Показать сообщения:    
Ответить на тему

Текущее время: Сегодня 16:49

Часовой пояс: GMT + 4



Вы не можете начинать темы
Вы не можете отвечать на сообщения
Вы не можете редактировать свои сообщения
Вы не можете удалять свои сообщения
Вы не можете голосовать в опросах
Вы не можете прикреплять файлы к сообщениям
Вы не можете скачивать файлы

▼ Вниз