Заклятье. Наши дни / The Crucifixion (Ксавье Жанс / Xavier Gens) [2017 г., ужасы, триллер, детектив, HDRip] Dub [iTunes]

Ответить на тему
 
Автор
Сообщение

Пост 05-Дек-2017 21:44

[Q] 

ara1205

-Заклятье. Наши дни / The Crucifixion-- Производство: США, Великобритания, Румыния
Год выпуска: 2017 г.
Жанр: ужасы, триллер, детектив
Продолжительность: 01:29:54
Мировая премьера: 1 июля 2017
Российская премьера: 12 октября 2017
Перевод: Профессиональный (полное дублирование) [iTunes]-Режиссёр: Ксавье Жанс / Xavier Gens-В ролях: Софи Куксон, Корнелиу Улич, Бриттани Эшворт, Мэтью Заяц, Диана Владу, Раду Банзару, Хавьер Ботет, Иван Гонсалес-Описание: В 2005 году пять священнослужителей обвиняются в убийстве монахини, над которой проводился обряд экзорцизма. Журналистка Николь начинает свое независимое расследование. Но по мере погружения в цепь необъяснимых событий она все больше становится их неотъемлемой частью и все больше склоняется к тому, что служители культа проиграли сражение с демонической сущностью, а экзорцизм стал орудием демона в его страшном ритуале.- -Качество видео: HDRip
Контейнер: AVI
Видео кодек: XviD
Аудио кодек: AC3
Видео: 720х304, 23,976 fps, 1934 Kbps, 0.368 bits/pixel
Аудио: 48 kHz, AC3 Dolby Digital, 6 ch, 384 Kbps
Cубтитры: отсутствуют-
Общее
Полное имя : C:\Users\Admin\Pictures\Заклятье. Наши дни\Zaklyate.Nashy.Dni.2017.HDRip.1.46Gb.[pirat.ca].avi
Формат : AVI
Формат/Информация : Audio Video Interleave
Размер файла : 1,46 Гбайт
Продолжительность : 1 ч. 29 м.
Общий поток : 2327 Кбит/сек
Программа кодирования : VirtualDubMod 1.5.10.2 (build 2540/release)
Библиотека кодирования : VirtualDubMod build 2540/release
Видео
Идентификатор : 0
Формат : MPEG-4 Visual
Профиль формата : Advanced [email protected]
Параметр BVOP формата : 1
Параметр QPel формата : Нет
Параметр GMC формата : Без точки перехода
Параметр матрицы формата : Выборочная
Идентификатор кодека : XVID
Идентификатор кодека/Подсказка : XviD
Продолжительность : 1 ч. 29 м.
Битрейт : 1934 Кбит/сек
Ширина : 720 пикселей
Высота : 304 пикселя
Соотношение сторон : 2,35:1
Частота кадров : 23,976 кадра/сек
Цветовое пространство : YUV
Субдискретизация насыщенности : 4:2:0
Битовая глубина : 8 бит
Тип развёртки : Прогрессивная
Метод сжатия : С потерями
Бит/(Пиксели*Кадры) : 0.368
Размер потока : 1,21 Гбайт (83%)
Библиотека кодирования : XviD 73
Аудио
Идентификатор : 1
Формат : AC-3
Формат/Информация : Audio Coding 3
Расширение режима : CM (complete main)
Параметр Endianness формата : Big
Идентификатор кодека : 2000
Продолжительность : 1 ч. 29 м.
Вид битрейта : Постоянный
Битрейт : 384 Кбит/сек
Каналы : 6 каналов
Расположение каналов : Front: L C R, Side: L R, LFE
Частота : 48,0 КГц
Битовая глубина : 16 бит
Метод сжатия : С потерями
Размер потока : 247 Мбайт (16%)
Выравнивание : Разделение по промежуткам
Продолжительность промежутка : 42 мс. (1,00 видеокадр)
Время предзагрузки промежутка : 500 мс.
-
-
Download / Скачать

Хотите скачать бесплатно? Зарегистрируйтесь на сайте (ссылка на регистрацию). Pirat.ca - самый быстрый торрент трекер в рунете!

Как скачивать  ·   Что такое торрент  ·   Рейтинг и ограничения

zmaksimz

Корсар

Пост 06-Дек-2017 13:58 (спустя 16 часов)

[Q] 

ни чего так себе кино
[Профиль]  [ЛС] 

Cjey

Шкипер

Пост 07-Дек-2017 10:13 (спустя 20 часов)

[Q] 

неплохой, предсказуемый фильм. Концовка разочаровала (
[Профиль]  [ЛС] 

Пост 13-Янв-2018 10:32 (спустя 1 месяц 6 дней)

Топик был перенесен из форума Новинки (HD|DVD|BD| TV|SAT|PDTV| - Rips) в форум Фильмы 2010 - 2017 г.г.
aleksey99
 
Показать сообщения:    
Ответить на тему

Текущее время: Сегодня 14:47

Часовой пояс: GMT + 4



Вы не можете начинать темы
Вы не можете отвечать на сообщения
Вы не можете редактировать свои сообщения
Вы не можете удалять свои сообщения
Вы не можете голосовать в опросах
Вы не можете прикреплять файлы к сообщениям
Вы не можете скачивать файлы

Майнать ▼