Виселица / Hangman (Джонни Мартин / Johnny Martin) [2017 г., триллер, криминал, детектив, HDTVRip] VO

Ответить на тему
 
Автор
Сообщение

Пост 23-Ноя-2017 00:19

[Q] 

vamo

Шкипер

Виселица / Hangman Производство: США / Patriot Pictures, Cheyenne Enterprises
Год выпуска: 2017
Жанр: триллер, криминал, детектив
Продолжительность: 01:38:34
Перевод Любительский (одноголосый закадровый) [BadBajo]
Режиссёр: Джонни Мартин / Johnny Martin
В ролях: Карл Урбан, Аль Пачино, Бриттани Сноу, Сара Шахи, Джо Андерсон, Жермен Риверс, Майкл Пападжон, Чили Рамос, Одесса Рэй, Стив Култер
Описание: Журналистка Кристи Дэвис пишет статью о работе полиции, сотрудничая с детективом Руни из отдела убийств. И в первый же день они оказываются на месте преступления — девушка повешена, а на груди у нее вырезана буква. А неподалеку в здании детектив Руни находит на стене игру в виселицу и вырезанные цифры, которые совпадают с номерами его жетона и полицейского в отставке, бывшего детектива Арчера. Пенсионер Арчер с охотой берется помогать в расследовании, когда становится ясно, что в городе орудует серийный убийца — на следующий день детективы находят ещё одного повешенного.

Качество видео: HDTVRip
Контейнер: AVI
Видео кодек: XviD
Аудио кодек: AC3
Видео: 720x304 (2.37:1), 23.976 fps, XviD build 67 ~1727 kbps avg, 0.33 bit/pixel
Аудио: 48 kHz, AC3 Dolby Digital, 3/2 (L,C,R,l,r) + LFE ch, ~384 kbps
Cубтитры: английские [внешние]
Формат : AVI
Формат/Информация : Audio Video Interleave
Профиль формата : OpenDML
Размер файла : 1,46 Гбайт
Продолжительность : 1 ч. 38 м.
Общий поток : 2118 Кбит/сек
Программа кодирования : Lavf57.71.100
Примечание : Rip by Basma4i
Видео
Идентификатор : 0
Формат : MPEG-4 Visual
Профиль формата : Advanced Simple@L5
Параметр BVOP формата : Нет
Параметр QPel формата : Нет
Параметр GMC формата : Без точки перехода
Параметр матрицы формата : Default (H.263)
Идентификатор кодека : XVID
Идентификатор кодека/Подсказка : XviD
Продолжительность : 1 ч. 38 м.
Битрейт : 1722 Кбит/сек
Ширина : 720 пикселей
Высота : 304 пикселя
Соотношение сторон : 2,35:1
Частота кадров : 23,976 (24000/1001) кадра/сек
Цветовое пространство : YUV
Субдискретизация насыщенности : 4:2:0
Битовая глубина : 8 бит
Тип развёртки : Прогрессивная
Метод сжатия : С потерями
Бит/(Пиксели*Кадры) : 0.328
Размер потока : 1,19 Гбайт (81%)
Заголовок : Eng
Библиотека кодирования : XviD 67
Аудио
Идентификатор : 1
Формат : AC-3
Формат/Информация : Audio Coding 3
Расширение режима : CM (complete main)
Параметр Endianness формата : Big
Идентификатор кодека : 2000
Продолжительность : 1 ч. 38 м.
Вид битрейта : Постоянный
Битрейт : 384 Кбит/сек
Каналы : 6 каналов
Расположение каналов : Front: L C R, Side: L R, LFE
Частота : 48,0 КГц
Частота кадров : 31,250 кадров/сек (1536 spf)
Битовая глубина : 16 бит
Метод сжатия : С потерями
Размер потока : 271 Мбайт (18%)
Выравнивание : Соединение по промежуткам
Продолжительность промежутка : 32 мс. (0,77 видеокадр)
Заголовок : Rus
Download / Скачать

Хотите скачать бесплатно? Зарегистрируйтесь на сайте (ссылка на регистрацию). Pirat.ca - самый быстрый торрент трекер в рунете!

Как скачивать  ·   Что такое торрент  ·   Рейтинг и ограничения

bo4kov

Гроза морей

558

Пост 23-Ноя-2017 00:51 (спустя 32 минуты)

[Q] 

Спасибо!!!

_________________
[Профиль]  [ЛС] 

capt.Smollet

Лоцман

Пост 23-Ноя-2017 22:52 (спустя 22 часа)

[Q] 

судя по выходу 24/11, очень оперативно
спасибо
[Профиль]  [ЛС] 

msss

Корсар

Пост 26-Ноя-2017 15:17 (спустя 2 дня 16 часов)

[Q] 

Посредственный фильмец, смотреть только любителям Аль Пачино.
4/10
[Профиль]  [ЛС] 

ketzer

Корсар

Пост 26-Дек-2017 05:03 (спустя 29 дней)

[Q] 

На разок. Не самый плохой фильм, но и ничем оригинальным не блещет. Аль Пачино не старается.
[Профиль]  [ЛС] 

Пост 13-Янв-2018 10:35 (спустя 18 дней)

Топик был перенесен из форума Новинки (HD|DVD|BD| TV|SAT|PDTV| - Rips) в форум Фильмы 2010 - 2017 г.г.
aleksey99
 
Показать сообщения:    
Ответить на тему

Текущее время: Сегодня 15:59

Часовой пояс: GMT + 4



Вы не можете начинать темы
Вы не можете отвечать на сообщения
Вы не можете редактировать свои сообщения
Вы не можете удалять свои сообщения
Вы не можете голосовать в опросах
Вы не можете прикреплять файлы к сообщениям
Вы не можете скачивать файлы

Майнать ▼