Уважаемый Гость!
Вы можете поддержать проект и зарегистрироваться у наших партнеров - онлайн-стратегия MyLands. При регистрации в игре Вы получите код, который сможете активировать после регистрации на pirat.ca и получить 1000 дублонов.

Ваш код:
a2be712514e46eae310418ece8905345dbacafb8
 
     

Урок окончен / Dismissed (Бенджамин Арфманн / Benjamin Arfmann) [2017 г., триллер, WEB-DLRip] VO

Ответить на тему
 
Автор
Сообщение

Пост 25-Ноя-2017 16:25

[Q] 

Су-34

Гроза морей

-Урок окончен / Dismissed- -Производство: США
Год выпуска: 2017 г.
Жанр: триллер
Продолжительность: 01:26:57
Мировая премьера: 8 октября 2017
Перевод: Любительский (одноголосый, закадровый) [BadBajo]-Режиссёр: Бенджамин Арфманн / Benjamin Arfmann-В ролях: Дилан Спроус, Рэндолл Парк, Кристофер Бауэр, Брук Диллман, Рэй Грэй, Кент Осборн, Роуэн Смит, Роберт Лонгстрит, Мэттью Дж. Эванс, Марк Келли-Описание: Лукас Уорд - прилежный ученик, отличник, победитель всех шахматных турниров. На пути к цели Лукас не остановится ни перед чем. Самое главное для него, это быть лучше всех. Даже не пытайтесь поставить ему плохую оценку. Лукасу это очень не понравится.-- -Качество видео: WEB-DLRip
Контейнер: AVI
Видео кодек: XviD
Аудио кодек: AC3
Видео: 720x304 (2.35:1), 23.976 fps, ~1982 kbps avg, 0.378 bit/pixel
Аудио: 48 kHz, AC3 Dolby Digital, 3/2 (L,C,R,l,r) + LFE ch, ~384 kbps avg
Cубтитры: отсутствуют
В США принята следующая система оценок:
A* = 5+
A = 5
B = 4
C = 3
D = 2
F/U=1
Complete name : D:\Раздачи\Урок окончен (2017) WEB-DLRip.avi
Format : AVI
Format/Info : Audio Video Interleave
File size : 1.44 GiB
Duration : 1 h 26 min
Overall bit rate : 2 375 kb/s
Writing application : VirtualDubMod 1.5.10.3 (build 2550/release)
Writing library : VirtualDubMod build 2550/release
Video
ID : 0
Format : MPEG-4 Visual
Format profile : Advanced [email protected]
Format settings, BVOP : 1
Format settings, QPel : No
Format settings, GMC : No warppoints
Format settings, Matrix : Custom
Codec ID : XVID
Codec ID/Hint : XviD
Duration : 1 h 26 min
Bit rate : 1 982 kb/s
Width : 720 pixels
Height : 304 pixels
Display aspect ratio : 2.35:1
Frame rate : 23.976 (24000/1001) FPS
Color space : YUV
Chroma subsampling : 4:2:0
Bit depth : 8 bits
Scan type : Progressive
Compression mode : Lossy
Bits/(Pixel*Frame) : 0.378
Stream size : 1.20 GiB (83%)
Writing library : XviD 67
Audio
ID : 1
Format : AC-3
Format/Info : Audio Coding 3
Format settings, Endianness : Big
Codec ID : 2000
Duration : 1 h 26 min
Bit rate mode : Constant
Bit rate : 384 kb/s
Channel(s) : 6 channels
Channel positions : Front: L C R, Side: L R, LFE
Sampling rate : 48.0 kHz
Frame rate : 31.250 FPS (1536 SPF)
Bit depth : 16 bits
Compression mode : Lossy
Stream size : 239 MiB (16%)
Alignment : Split accross interleaves
Interleave, duration : 42 ms (1.00 video frame)
Interleave, preload duratio : 500 ms
Service kind : Complete Main
Download / Скачать

Хотите скачать бесплатно? Зарегистрируйтесь на сайте (ссылка на регистрацию). Pirat.ca - самый быстрый торрент трекер в рунете!

Как скачивать  ·   Что такое торрент  ·   Рейтинг и ограничения

usya5

Корсар

Пост 25-Ноя-2017 20:36 (спустя 4 часа)

[Q] 

как фильм? что-то никаких оценок...
[Профиль]  [ЛС] 

Андрей1968

Корсар

31

Пост 26-Ноя-2017 12:43 (спустя 16 часов)

[Q] 

812740как фильм? что-то никаких оценок...
ay
Всем качать!!!
[Профиль]  [ЛС] 

alexx2201

34

Пост 26-Ноя-2017 21:22 (спустя 8 часов)

[Q] 

уг..ИМ.жаль тратить буквы на такие шедевры. aa Лови бочку

_________________
Одним ветром дышим, Пираты!
[Профиль]  [ЛС] 

jesev

Лоцман

Пост 05-Дек-2017 21:16 (спустя 8 дней)

[Q] 

Это надо показать всем учителям жмущим оценки. Например СШ№17 Северодонецк
[Профиль]  [ЛС] 

tomaszzzz

Шкипер

Пост 30-Дек-2017 01:03 (спустя 24 дня)

[Q] 

Иль СШ№8 Лисичанск fh
[Профиль]  [ЛС] 

Пост 13-Янв-2018 10:35 (спустя 14 дней)

Топик был перенесен из форума Новинки (HD|DVD|BD| TV|SAT|PDTV| - Rips) в форум Фильмы 2010 - 2017 г.г.
aleksey99
 
Показать сообщения:    
Ответить на тему

Текущее время: Сегодня 16:18

Часовой пояс: GMT + 4



Вы не можете начинать темы
Вы не можете отвечать на сообщения
Вы не можете редактировать свои сообщения
Вы не можете удалять свои сообщения
Вы не можете голосовать в опросах
Вы не можете прикреплять файлы к сообщениям
Вы не можете скачивать файлы

▼ Вниз