Калифорнийский дорожный патруль / CHIPS (Дэкс Шепард / Dax Shepard) [2017 г., боевик, комедия, криминал, BDRip] Dub [iTunes] + Sub (Rus)

Ответить на тему
 
Автор
Сообщение

Пост 05-Дек-2017 22:12

[Q] 

ara1205

-Калифорнийский дорожный патруль / CHIPS-- Производство: США
Год выпуска: 2017 г.
Жанр: боевик, комедия, криминал
Продолжительность: 01:40:51
Перевод: Профессиональный (полное дублирование) [iTunes]-Режиссёр: Дэкс Шепард / Dax Shepard-В ролях: Майкл Пенья, Дэкс Шепард, Джессика МакНэми, Адам Броди, Райан Хансен, Кристен Белл, Джэми Бок, Джастин Чатвин, Камерон Крус, Клэй Каллен-Описание: Агент ФБР, специалист по работе под прикрытием и охмурению женщин, получает новое задание — провести внутренне расследование в калифорнийском дорожном патруле. Банда на скоростных мотоциклах грабит инкассаторские автомобили, и ФБР подозревает, что им помогает кто-то из своих. Новую личность агента под прикрытием зовут Френк Пончарелло, и теперь он патрулирует дороги солнечной Калифорнии. В напарники ему достается принципиальный новичок и бывший мотогонщик Джон, на которого без слёз не взглянешь — парень перенёс кучу операций, поэтому жить не может без обезболивающих.- -Качество видео: BDRip
Контейнер: AVI
Видео кодек: XviD
Аудио кодек: AC3
Видео: 688х384, 23,976 fps, 1616 Kbps, 0.255 bits/pixel
Аудио: 48 kHz, AC3 Dolby Digital, 6 ch, 384 Kbps
Cубтитры: русские (внешние) [SRT]-
Полное имя : C:\Users\Admin\Pictures\Калифорнийский дорожный патруль\Kalifornijskiy.Dorognyj.Patryl.2017.BDRip.1.42Gb.[pirat.ca]\Kalifornijskiy.Dorognyj.Patryl.2017.BDRip.1.42Gb.[pirat.ca].avi
Формат : AVI
Формат/Информация : Audio Video Interleave
Размер файла : 1,42 Гбайт
Продолжительность : 1 ч. 40 м.
Общий поток : 2010 Кбит/сек
Программа кодирования : VirtualDubMod 1.5.10.2 (build 2540/release)
Библиотека кодирования : VirtualDubMod build 2540/release
Видео
Идентификатор : 0
Формат : MPEG-4 Visual
Профиль формата : Advanced [email protected]
Параметр BVOP формата : 1
Параметр QPel формата : Нет
Параметр GMC формата : Без точки перехода
Параметр матрицы формата : Выборочная
Идентификатор кодека : XVID
Идентификатор кодека/Подсказка : XviD
Продолжительность : 1 ч. 40 м.
Битрейт : 1616 Кбит/сек
Ширина : 688 пикселей
Высота : 384 пикселя
Соотношение сторон : 16:9
Частота кадров : 23,976 кадра/сек
Цветовое пространство : YUV
Субдискретизация насыщенности : 4:2:0
Битовая глубина : 8 бит
Тип развёртки : Прогрессивная
Метод сжатия : С потерями
Бит/(Пиксели*Кадры) : 0.255
Размер потока : 1,14 Гбайт (80%)
Библиотека кодирования : XviD 73
Аудио
Идентификатор : 1
Формат : AC-3
Формат/Информация : Audio Coding 3
Расширение режима : CM (complete main)
Параметр Endianness формата : Big
Идентификатор кодека : 2000
Продолжительность : 1 ч. 40 м.
Вид битрейта : Постоянный
Битрейт : 384 Кбит/сек
Каналы : 6 каналов
Расположение каналов : Front: L C R, Side: L R, LFE
Частота : 48,0 КГц
Битовая глубина : 16 бит
Метод сжатия : С потерями
Размер потока : 277 Мбайт (19%)
Выравнивание : Разделение по промежуткам
Продолжительность промежутка : 42 мс. (1,00 видеокадр)
Время предзагрузки промежутка : 500 мс.
-
-
Download / Скачать

Хотите скачать бесплатно? Зарегистрируйтесь на сайте (ссылка на регистрацию). Pirat.ca - самый быстрый торрент трекер в рунете!

Как скачивать  ·   Что такое торрент  ·   Рейтинг и ограничения

lightmaster

Гроза морей

Пост 24-Дек-2017 22:39 (спустя 19 дней)

[Q] 

Приятно посмеяться воскрессным вечером, всем добра...и Раздающему респект!
[Профиль]  [ЛС] 

ketzer

Корсар

Пост 25-Дек-2017 00:27 (спустя 1 час 48 минут)

[Q] 

Фильм отличный - неглупые диалоги, много комедии и великолепно выполненные трюки.
[Профиль]  [ЛС] 

RomanTroizk

Корсар

Пост 26-Дек-2017 22:02 (спустя 1 день 21 час)

[Q] 

Спасибо за отзывы- гляну Вы лучшие!
[Профиль]  [ЛС] 

usya5

Корсар

Пост 30-Дек-2017 19:54 (спустя 3 дня)

[Q] 

посмотрим, поверим отзывам! Лови бочку
[Профиль]  [ЛС] 

msss

Корсар

Пост 04-Янв-2018 17:22 (спустя 4 дня)

[Q] 

Просто зачёт! Всех к просмотру!
[Профиль]  [ЛС] 

Пост 13-Янв-2018 10:38 (спустя 8 дней)

Топик был перенесен из форума Новинки (HD|DVD|BD| TV|SAT|PDTV| - Rips) в форум Фильмы 2010 - 2017 г.г.
aleksey99
 
Показать сообщения:    
Ответить на тему

Текущее время: Сегодня 05:22

Часовой пояс: GMT + 4



Вы не можете начинать темы
Вы не можете отвечать на сообщения
Вы не можете редактировать свои сообщения
Вы не можете удалять свои сообщения
Вы не можете голосовать в опросах
Вы не можете прикреплять файлы к сообщениям
Вы не можете скачивать файлы

Майнать ▼