Уважаемый Гость!
Вы можете поддержать проект и зарегистрироваться у наших партнеров - онлайн-стратегия MyLands. При регистрации в игре Вы получите код, который сможете активировать после регистрации на pirat.ca и получить 1000 дублонов.

Ваш код:
3a771c5d71ef5300c8aeb8017d748943d9a3a70e
 
     

[Jolly Roger] Прометей / Prometheus (Ридли Скотт / Ridley Scott) [2012 г., фантастика, триллер, приключения, Blu-Ray Rip, 1080p] Dub (Rus / Ukr) + orig (Eng) + Sub (rus / ukr / eng)

Ответить на тему
 
Автор
Сообщение

Пост 29-Сен-2012 15:16

[Q] 

genkasper

-Прометей / Prometheus-- Год выпуска: 2012 г.
Производство: США, Великобритания
Жанр: фантастика, триллер, приключения
Продолжительность: 02:03:46
Перевод: Профессиональный (полное дублирование)
Режиссер: Ридли Скотт / Ridley Scott
В ролях: Нуми Рапас, Майкл Фассбендер, Шарлиз Терон, Идрис Эльба, Гай Пирс, Логан Маршалл-Грин, Шон Харрис, Рейф Сполл, Иман Эллиотт, Бенедикт Вонг
Описание: В поисках сакрального знания группа ученых отправляется в самые темные и неизведанные чертоги вселенной. Именно там, в отдаленных мирах, находясь на пределе своих умственных и физических возможностей, им предстоит вступить в безжалостную схватку за будущее всего человечества... --Качество видео: Blu-Ray Rip
Формат видео: MKV
Стандарт разрешения: 1080p
Видео кодек: H.264
Аудио кодек: DTS, AC3
Видео: 1920x800 at 23.976 fps, ~8300 kbps avg, 0.225
Аудио: Russian: 48 kHz, DTS, 3/2 (L,C,R,l,r) + LFE ch, ~755.00 kbps avg |Дубляж, Blu-ray EUR|
Аудио 2: Ukrainian: 48 kHz, AC3, 3/2 (L,C,R,l,r) + LFE ch, ~448.00 kbps avg |Дубляж, Blu-ray EUR|
Аудио 3: English: 48 kHz, DTS, 3/2 (L,C,R,l,r) + LFE ch, ~1510.00 kbps avg
Субтитры: русские, украинские, английские
Навигация по главам: есть
General
Complete name : Prometheus.2012 BDRip.1080p.JRG.mkv
Format : Matroska
Format version : Version 2
File size : 9.53 GiB
Duration : 2h 3mn
Overall bit rate : 11.0 Mbps
Movie name : Rip by genkasper for R.G. Jolly Roger
Encoded date : UTC 2012-09-29 10:50:43
Writing application : mkvmerge v5.8.0 ('No Sleep / Pillow') built on Sep 2 2012 15:37:04
Writing library : libebml v1.2.3 + libmatroska v1.3.0
Video
ID : 1
Format : AVC
Format/Info : Advanced Video Codec
Format profile : [email protected]
Format settings, CABAC : Yes
Format settings, ReFrames : 5 frames
Codec ID : V_MPEG4/ISO/AVC
Duration : 2h 3mn
Bit rate : 8 300 Kbps
Width : 1 920 pixels
Height : 800 pixels
Display aspect ratio : 2.40:1
Frame rate mode : Constant
Frame rate : 23.976 fps
Color space : YUV
Chroma subsampling : 4:2:0
Bit depth : 8 bits
Scan type : Progressive
Bits/(Pixel*Frame) : 0.225
Stream size : 7.00 GiB (73%)
Title : Rip by genkasper for R.G. Jolly Roger
Writing library : x264 core 125 r2200 999b753
Encoding settings : cabac=1 / ref=5 / deblock=1:-1:-1 / analyse=0x3:0x133 / me=umh / subme=11 / psy=1 / psy_rd=1.00:0.00 / mixed_ref=1 / me_range=32 / chroma_me=1 / trellis=2 / 8x8dct=1 / cqm=0 / deadzone=21,11 / fast_pskip=0 / chroma_qp_offset=-2 / threads=9 / lookahead_threads=1 / sliced_threads=0 / nr=0 / decimate=0 / interlaced=0 / bluray_compat=0 / constrained_intra=0 / bframes=9 / b_pyramid=2 / b_adapt=2 / b_bias=0 / direct=3 / weightb=1 / open_gop=0 / weightp=2 / keyint=250 / keyint_min=23 / scenecut=40 / intra_refresh=0 / rc_lookahead=50 / rc=2pass / mbtree=1 / bitrate=8300 / ratetol=1.0 / qcomp=0.70 / qpmin=0 / qpmax=69 / qpstep=4 / cplxblur=20.0 / qblur=0.5 / ip_ratio=1.40 / aq=1:1.00
Language : English
Default : Yes
Forced : No
Audio #1
ID : 2
Format : DTS
Format/Info : Digital Theater Systems
Codec ID : A_DTS
Duration : 2h 3mn
Bit rate mode : Constant
Bit rate : 755 Kbps
Channel(s) : 6 channels
Channel positions : Front: L C R, Side: L R, LFE
Sampling rate : 48.0 KHz
Bit depth : 24 bits
Compression mode : Lossy
Stream size : 668 MiB (7%)
Language : Russian
Default : Yes
Forced : No
Audio #2
ID : 3
Format : AC-3
Format/Info : Audio Coding 3
Mode extension : CM (complete main)
Format settings, Endianness : Big
Codec ID : A_AC3
Duration : 2h 3mn
Bit rate mode : Constant
Bit rate : 448 Kbps
Channel(s) : 6 channels
Channel positions : Front: L C R, Side: L R, LFE
Sampling rate : 48.0 KHz
Bit depth : 16 bits
Compression mode : Lossy
Stream size : 397 MiB (4%)
Language : Ukrainian
Default : No
Forced : No
Audio #3
ID : 4
Format : DTS
Format/Info : Digital Theater Systems
Codec ID : A_DTS
Duration : 2h 3mn
Bit rate mode : Constant
Bit rate : 1 510 Kbps
Channel(s) : 6 channels
Channel positions : Front: L C R, Side: L R, LFE
Sampling rate : 48.0 KHz
Bit depth : 24 bits
Compression mode : Lossy
Stream size : 1.31 GiB (14%)
Language : English
Default : No
Forced : No
Text #1
ID : 5
Format : UTF-8
Codec ID : S_TEXT/UTF8
Codec ID/Info : UTF-8 Plain Text
Language : Russian
Default : No
Forced : No
Text #2
ID : 6
Format : UTF-8
Codec ID : S_TEXT/UTF8
Codec ID/Info : UTF-8 Plain Text
Language : Ukrainian
Default : No
Forced : No
Text #3
ID : 7
Format : UTF-8
Codec ID : S_TEXT/UTF8
Codec ID/Info : UTF-8 Plain Text
Language : English
Default : No
Forced : No
Menu
00:00:00.000 : ru:1-я
00:05:13.146 : ru:2-я
00:07:44.880 : ru:3-я
00:11:31.524 : ru:4-я
00:15:09.783 : ru:5-я
00:20:04.912 : ru:6-я
00:22:32.808 : ru:7-я
00:27:43.118 : ru:8-я
00:31:57.832 : ru:9-я
00:34:10.840 : ru:10-я
00:37:53.228 : ru:11-я
00:40:45.358 : ru:12-я
00:45:49.329 : ru:13-я
00:48:47.925 : ru:14-я
00:50:23.061 : ru:15-я
00:53:56.398 : ru:16-я
00:56:32.222 : ru:17-я
00:59:31.608 : ru:18-я
01:01:29.184 : ru:19-я
01:04:17.561 : ru:20-я
01:06:01.456 : ru:21-я
01:08:57.882 : ru:22-я
01:11:13.519 : ru:23-я
01:15:10.631 : ru:24-я
01:17:06.037 : ru:25-я
01:25:02.305 : ru:26-я
01:27:09.349 : ru:27-я
01:30:10.363 : ru:28-я
01:32:43.724 : ru:29-я
01:35:23.134 : ru:30-я
01:37:46.859 : ru:31-я
01:40:46.372 : ru:32-я
01:43:46.220 : ru:33-я
01:48:28.792 : ru:34-я
01:52:08.095 : ru:35-я
01:58:06.287 : ru:36-я
02:03:46.167 : ru:37-я

--
Download / Скачать

Хотите скачать бесплатно? Зарегистрируйтесь на сайте (ссылка на регистрацию). Pirat.ca - самый быстрый торрент трекер в рунете!

Как скачивать  ·   Что такое торрент  ·   Рейтинг и ограничения

Jigsaw

Пост 29-Сен-2012 15:36 (спустя 19 минут)

[Q] 

Посмотрел, кино просто супер!)


Последний раз редактировалось: Jigsaw (2012-09-29 18:43), всего редактировалось 1 раз
 

PTteam

Морской Волк

Пост 29-Сен-2012 17:41 (спустя 2 часа 5 минут)

[Q] 

[Профиль]  [ЛС] 

Vulkankor

Корсар

Пост 30-Сен-2012 13:22 (спустя 19 часов)

[Q] 

Кое что содрали с Чужого , пару раз посмотреть можно
[Профиль]  [ЛС] 

kfpanda

Шкипер

Пост 30-Сен-2012 14:10 (спустя 48 минут)

[Q] 

[Профиль]  [ЛС] 

bjb13

Корсар

351

Пост 01-Окт-2012 13:51 (спустя 23 часа)

[Q] 

Ходят слухи, что фильм изначально был задуман как некое продолжение чужого, а перед самым выходом поменяли название af
[Профиль]  [ЛС] 

Otorten

Лоцман

Пост 01-Окт-2012 19:10 (спустя 5 часов)

[Q] 

Можно считать данный фильм приквелом Чужого. По крайней мере Ридли Скотт давно уже этот фильм именно так и планировал. Но в процессе съемок фильм выродился в нечто более самостоятельное чем просто приквел. Так что ничего с Чужого тут не содрали, а раскрыли тайну происхождения ксеноморфов.
Прекрасный фильм!
[Профиль]  [ЛС] 

dimon.kozloff

Шкипер

Пост 13-Окт-2012 20:57 (спустя 12 дней)

[Q] 

спасибо

_________________
dimon.kozloff
[Профиль]  [ЛС] 

FezoOne

Шкипер

Пост 24-Окт-2012 21:21 (спустя 11 дней)

[Q] 


_________________
Уж лучше голодать, чем что попало есть и лучше быть одним, чем вместе с кем попало. Омар Хайям.
[Профиль]  [ЛС] 

tiberium2007

Штурман

Пост 19-Дек-2012 20:52 (спустя 1 месяц 25 дней)

[Q] 

спасибо,забираю!

_________________
[Профиль]  [ЛС] 

Hanneman

Морской Волк

Пост 06-Янв-2013 12:58 (спустя 17 дней)

[Q] 

[Профиль]  [ЛС] 

xdgx

Флибустьер

Пост 12-Мар-2013 19:47 (спустя 2 месяца 6 дней)

[Q] 

[Профиль]  [ЛС] 

соломонметр

Шкипер

Пост 12-Апр-2013 18:03 (спустя 30 дней)

[Q] 

aa
[Профиль]  [ЛС] 

watsonix

Флибустьер

Пост 21-Июл-2013 22:10 (спустя 3 месяца 9 дней)

[Q] 

[Профиль]  [ЛС] 

Haron

Шкипер

Пост 22-Дек-2013 04:42 (спустя 5 месяцев)

[Q] 

нда. с такой скоростью я до нового года качать буду...... а ведь единственная раздача с качеством вместо фапания на аудиодорожки непонятного назначения, в отличии от остальных раздач аж на 3х трекерах.... :{
[Профиль]  [ЛС] 

che_gevara1

Корсар

Пост 21-Янв-2014 23:06 (спустя 30 дней)

[Q] 

збс клёвый фильлм
[Профиль]  [ЛС] 

windj

Корсар

73

Пост 23-Май-2014 19:32 (спустя 4 месяца 1 день)

[Q] 

Благодарю! Отличное кино.

_________________
[Профиль]  [ЛС] 

kupyakov_dn

Лоцман

Пост 22-Янв-2015 21:43 (спустя 7 месяцев 30 дней)

[Q] 

Всем привет) Ребята встаньте пожалуйста на раздачу)
[Профиль]  [ЛС] 

Мегачувак

Штурман

Пост 28-Мар-2015 10:52 (спустя 2 месяца 5 дней)

[Q] 

Спасибо чувак, отличный фильм в хорошем качестве
Пять минут Star Citizen
[Профиль]  [ЛС] 

ГРЕВ

Корсар

Пост 16-Июл-2015 15:23 (спустя 3 месяца 19 дней)

[Q] 

Автору респект!!!

_________________
Я ЗДЕСЬ, Я ТАМ, Я ВСЕГДА...
[Профиль]  [ЛС] 

Ishtori

Флибустьер

Пост 29-Ноя-2015 13:50 (спустя 4 месяца 12 дней)

[Q] 

Спасибо за раздачу! :)
[Профиль]  [ЛС] 

Chuma

Шкипер

Пост 17-Янв-2017 21:49 (спустя 1 год 1 месяц)

[Q] 

Фильм супер! Советую к просмотру.
[Профиль]  [ЛС] 

Hippopotam

Флибустьер

Пост 03-Фев-2017 12:59 (спустя 16 дней)

[Q] 

Не произвел особого впечатления сюжет. А картинка - красивая Спасибо!!!
[Профиль]  [ЛС] 

ГИППАРРД

Корсар

2

Пост 14-Янв-2018 10:16 (спустя 11 месяцев 10 дней)

[Q] 

Фильм наверно супер скачаю!!!
[Профиль]  [ЛС] 
Показать сообщения:    
Ответить на тему

Текущее время: Сегодня 23:01

Часовой пояс: GMT + 4



Вы не можете начинать темы
Вы не можете отвечать на сообщения
Вы не можете редактировать свои сообщения
Вы не можете удалять свои сообщения
Вы не можете голосовать в опросах
Вы не можете прикреплять файлы к сообщениям
Вы не можете скачивать файлы

▼ Вниз