Четверо против банка / Vier gegen die Bank (Вольфганг Петерсен / Wolfgang Petersen) [2016, комедия, криминал, BDRip] Dub [iTunes]

Ответить на тему
 
Автор
Сообщение

Пост 12-Янв-2018 15:14

[Q] 

aleksey99

--Четверо против банка / Vier gegen die Bank-- Производство: Германия / Hellinger, Doll Filmproduktion, Warner Bros.
Год выпуска: 2016 г.
Жанр: комедия, криминал
Продолжительность: 01:35:58--Мировая премьера: 25 декабря 2016
Российская премьера: 7 декабря 2017, «Ракета Релизинг»--Перевод: Профессиональный (полное дублирование) [iTunes]--Режиссер: Вольфганг Петерсен / Wolfgang Petersen--В ролях: Антье Трауэ, Александра Мария Лара, Тиль Швайгер, Яна Палласке, Маттиас Швайгхефер, Клаудия Михельсен, Михаэль Хербиг, Ян Йозеф Лиферс, Фахри Огюн Ярдим, Ясмин Лорд--Описание: Актер, спортсмен и рекламный агент инвестируют все свои сбережения под хорошие проценты, но неожиданно их счета прогорают. Им остается только топить свое горе в ближайшем баре, где они встречают своего инвестиционного агента. Разгневанная троица пытается выместить зло на нем, но тот сам оказался жертвой начальства и лишился работы. Теперь у этой четверки есть выбор: смириться с ударом судьбы или спланировать и осуществить дерзкое ограбление банка, чтобы вернуть свои кровно заработанные.-- --Качество видео: BDRip
Контейнер: AVI
Видео кодек: XviD
Аудио кодек: AC3
Видео: 720x304 (2.37:1), 23.976 fps, XviD build 73 ~1782 kbps avg, 0.34 bit/pixel
Аудио: 48 kHz, AC3 Dolby Digital, 3/2 (L,C,R,l,r) + LFE ch, ~384 kbps
Cубтитры: Отсутствуют .
Общее
Полное имя : H:\Torrent2\Четверо против банка_2016_BDRip.avi
Формат : AVI
Формат/Информация : Audio Video Interleave
Размер файла : 1,46 Гбайт
Продолжительность : 1 ч. 35 м.
Общий поток : 2176 Кбит/сек
Программа кодирования : VirtualDubMod 1.5.10.3 | www.virtualdub-fr.org || (build 2550/release)
Библиотека кодирования : VirtualDubMod build 2550/release
Видео
Идентификатор : 0
Формат : MPEG-4 Visual
Профиль формата : Advanced [email protected]
Параметр BVOP формата : 1
Параметр QPel формата : Нет
Параметр GMC формата : Без точки перехода
Параметр матрицы формата : Выборочная
Идентификатор кодека : XVID
Идентификатор кодека/Подсказка : XviD
Продолжительность : 1 ч. 35 м.
Битрейт : 1783 Кбит/сек
Ширина : 720 пикселей
Высота : 304 пикселя
Соотношение сторон : 2,35:1
Частота кадров : 23,976 кадра/сек
Цветовое пространство : YUV
Субдискретизация насыщенности : 4:2:0
Битовая глубина : 8 бит
Тип развёртки : Прогрессивная
Метод сжатия : С потерями
Бит/(Пиксели*Кадры) : 0.340
Размер потока : 1,20 Гбайт (82%)
Библиотека кодирования : XviD 73
Аудио
Идентификатор : 1
Формат : AC-3
Формат/Информация : Audio Coding 3
Расширение режима : CM (complete main)
Параметр Endianness формата : Big
Идентификатор кодека : 2000
Продолжительность : 1 ч. 35 м.
Вид битрейта : Постоянный
Битрейт : 384 Кбит/сек
Каналы : 6 каналов
Расположение каналов : Front: L C R, Side: L R, LFE
Частота : 48,0 КГц
Битовая глубина : 16 бит
Метод сжатия : С потерями
Размер потока : 264 Мбайт (18%)
Выравнивание : Разделение по промежуткам
Продолжительность промежутка : 42 мс. (1,00 видеокадр)
Время предзагрузки промежутка : 500 мс.
Трейлер
Download / Скачать

Хотите скачать бесплатно? Зарегистрируйтесь на сайте (ссылка на регистрацию). Pirat.ca - самый быстрый торрент трекер в рунете!

Как скачивать  ·   Что такое торрент  ·   Рейтинг и ограничения

qwers1

Шкипер

Пост 12-Янв-2018 18:54 (спустя 3 часа)

[Q] 

Ни кто не смотрел? Как фильм?
[Профиль]  [ЛС] 

левка

Корсар

Пост 12-Янв-2018 23:07 (спустя 4 часа)

[Q] 

сейчас за ценим !!!!автору Автору респект!!!
[Профиль]  [ЛС] 

WorldCount

Морской Волк

1

Пост 13-Янв-2018 00:48 (спустя 1 час 40 минут)

[Q] 

Не зашел. И 20 минут не выдержал. Увы.
[Профиль]  [ЛС] 

qwers1

Шкипер

Пост 13-Янв-2018 02:30 (спустя 1 час 41 минута)

[Q] 

Под пиво пятничным вечером самое то. Спасибо!!!
[Профиль]  [ЛС] 

msss

Корсар

Пост 14-Янв-2018 11:58 (спустя 1 день 9 часов)

[Q] 

Тоже хотелось выключить, но немного потерпев осилил. Ну на твердую троечку сойдёт. Под пивандрий).
[Профиль]  [ЛС] 

grosboy

Гроза морей

Пост 16-Янв-2018 12:47 (спустя 2 дня)

[Q] 

фильм средний. На один разок и то под очень большое желание чего-нибудь посмотреть, а вариантов нет совсем.

_________________
Щастье есть - его не может не быть...
[Профиль]  [ЛС] 

clark

Флибустьер

Пост 16-Янв-2018 19:37 (спустя 6 часов)

[Q] 

посмотрим спасибо

_________________
Последним смеётся тот, кто стреляет первым.
[Профиль]  [ЛС] 

tumparov

Корсар

Пост 20-Янв-2018 00:55 (спустя 3 дня)

[Q] 

ну уж если собрались оба актера из "Достучаться до небес" посмотрим_) Спасибо!!!
Добавлено спустя 1 час 36 минут:
а мне понравилось, да малясь избито, затерто, но ненавязчиво, не грузит, улыбает, и даже местами правдоподобно (в плане стечения обстоятельств)
[Профиль]  [ЛС] 
Показать сообщения:    
Ответить на тему

Текущее время: Сегодня 12:59

Часовой пояс: GMT + 4



Вы не можете начинать темы
Вы не можете отвечать на сообщения
Вы не можете редактировать свои сообщения
Вы не можете удалять свои сообщения
Вы не можете голосовать в опросах
Вы не можете прикреплять файлы к сообщениям
Вы не можете скачивать файлы

Майнать ▼