Бишунмо / Bichunmoo (Ким Ён-джун / Kim Young-jun) [2000 г., боевик, драма, BDRip, 720p] DVO

Ответить на тему
 
Автор
Сообщение

Пост 23-Янв-2018 00:14

[Q] 

D_Ex

Корсар

-Бишунмо / Bichunmoo-- Производство: Южная Корея
Год выпуска: 2000 г.
Жанр: боевик, драма
Продолжительность: 01:58:14
Мировая премьера: 1 июля
Перевод: Профессиональный (двухголосый, закадровый)
Режиссёр: Ким Ён-джун / Kim Young-jun-В ролях: Hyeon-jun Shin, Hee-seon Kim, Jin-young Jung-Описание: Действие картины происходит в Китае 14-го века. В то время Поднебесной правили монголы. Китай раздирали междоусобные войны. Именно тогда появились в Китае таинственные, непобедимые летающие воины. Они в совершенстве владели секретами боевых искусств. Они умели красиво убивать и красиво умирать. И они беспрекословно подчинялись своему мрачному предводителю Чахалангу.-
Качество видео: BDRip
Контейнер: AVI
Стандарт разрешения: 720p
Видео кодек: XviD
Аудио кодек: MP3
Видео: 1280x720 pixels, 5081 kbps, 23.976 fps, 0.23 bits/pixel
Аудио: 205 kbps, 2 channels, 48 kHz
Cубтитры: отсутствуют
General
Complete name : D:\Rip\Bichunmoo\Bichunmoo.avi
Format : AVI
Format/Info : Audio Video Interleave
Format profile : OpenDML
File size : 4.38 GiB
Duration : 1 h 58 min
Overall bit rate mode : Variable
Overall bit rate : 5 298 kb/s
Writing library : VirtualDub build 35491/release
Video
ID : 0
Format : MPEG-4 Visual
Format profile : Advanced [email protected]
Format settings, BVOP : 1
Format settings, QPel : No
Format settings, GMC : No warppoints
Format settings, Matrix : Default (MPEG)
Muxing mode : Packed bitstream
Codec ID : XVID
Codec ID/Hint : XviD
Duration : 1 h 58 min
Bit rate : 5 081 kb/s
Width : 1 280 pixels
Height : 720 pixels
Display aspect ratio : 16:9
Frame rate : 23.976 (24000/1001) FPS
Color space : YUV
Chroma subsampling : 4:2:0
Bit depth : 8 bits
Scan type : Progressive
Compression mode : Lossy
Bits/(Pixel*Frame) : 0.230
Stream size : 4.20 GiB (96%)
Writing library : XviD 65
Audio
ID : 1
Format : MPEG Audio
Format version : Version 1
Format profile : Layer 3
Mode : Joint stereo
Codec ID : 55
Codec ID/Hint : MP3
Duration : 1 h 58 min
Bit rate mode : Variable
Bit rate : 205 kb/s
Minimum bit rate : 32.0 kb/s
Channel(s) : 2 channels
Sampling rate : 48.0 kHz
Compression mode : Lossy
Stream size : 173 MiB (4%)
Alignment : Aligned on interleaves
Interleave, duration : 24 ms (0.58 video frame)
Interleave, preload duration : 302 ms
Writing library : LAME3.96r
Encoding settings : -m j -V 0 -q 0 -lowpass 19.5 --vbr-old -b 32
Раздаю по будням с 9:00 до 18:00 (московское +3GMT)
Download / Скачать

Хотите скачать бесплатно? Зарегистрируйтесь на сайте (ссылка на регистрацию). Pirat.ca - самый быстрый торрент трекер в рунете!

Как скачивать  ·   Что такое торрент  ·   Рейтинг и ограничения

Показать сообщения:    
Ответить на тему

Текущее время: Сегодня 07:06

Часовой пояс: GMT + 4



Вы не можете начинать темы
Вы не можете отвечать на сообщения
Вы не можете редактировать свои сообщения
Вы не можете удалять свои сообщения
Вы не можете голосовать в опросах
Вы не можете прикреплять файлы к сообщениям
Вы не можете скачивать файлы

Майнать ▼