Осторожно, Задов! или похождения прапорщика / Серии: 1-29 из 29 (Андрей Балашов) [2004 г., Комедийный сериал, DVDRip]

Ответить на тему
 
Автор
Сообщение

Пост 19-Мар-2017 14:02

[Q] 

Железный DVD

Лоцман

-Осторожно, Задов! или похождения прапорщика-- Производство: Россия
Жанр: Комедийный сериал
Год выпуска: 2004 г.
Продолжительность: ~00:54:00
Перевод: Не требуется
Режиссер: Андрей Балашов-В ролях: Дмитрий Нагиев, Андрей Федорцов, Александр Цекало, Семён Стругачёв, Татьяна Васильева, Людмила Гурченко, Любовь Полищук, Клара Новикова-Описание: Осторожно, Задов! или похождения прапорщика - комедийный сериал. Продолжение сериала Осторожно, модерн! 2 про прапорщика Задова. Место его партнёра по съёмкам Сергея Роста заняли новые известные актёры и певцы-Сэмпл
Качество видео: DVDRip
Контейнер: AVI
Видео кодек: XviD
Аудио кодек: MP3
Видео: 544x360 (4:3), 25 fps, XviD build 50 ~999 kbps avg, 0.20 bit/pixel
Аудио: 32 kHz, MPEG Layer 3, 2 ch, ~128.00 kbps avg
Субтитры: нет
1 - Осторожно, Задов ! или 8 марта
2 - Ограбление
3 - Дорожное приключение
4 - В поисках любви
5 - Здравствуйте, я ваша тёща
6 - Перемена пола
7 - Звёздный воин
8 - Пересадка мозга
9 - Фамильный особняк
10 - Загадочный пакет
11 - Поездка в Бразилию
12 - История совращения
13 - Звезда с неба
14 - А был ли мальчик ?
15 - Клад Пушкина
16 - С бомбой по жизни
17 - 6 невест прапорщика Задова
18 - Китайское снадобье
19 - Я сказал: Мохнатый !
20 - Лотерейная лихорадка
21 - Миссия посибл !
22 - Мнимое заклятие
23 - День рождения по-быстрому
24 - Поревнуем?
25 - 4 рыбки, 2 бомжа и 1 ваза
26 - Подкидыш
27 - Киллер по вызову
28 - Охота на Тигра
29 - Шило на мыло
Общее
Полное имя : F:\Осторожно Задов\Осторожно Задов 02 серия. DVDRip.avi
Формат : AVI
Формат/Информация : Audio Video Interleave
Размер файла : 496 Мбайт
Продолжительность : 1 ч. 0 м.
Общий поток : 1138 Кбит/сек
Программа кодирования : Lavf52.61.0
Видео
Идентификатор : 0
Формат : MPEG-4 Visual
Профиль формата : [email protected]
Параметр BVOP формата : Нет
Параметр QPel формата : Нет
Параметр GMC формата : Без точки перехода
Параметр матрицы формата : Default (H.263)
Идентификатор кодека : XVID
Идентификатор кодека/Подсказка : XviD
Продолжительность : 1 ч. 0 м.
Битрейт : 1000 Кбит/сек
Ширина : 544 пикселя
Высота : 360 пикселей
Соотношение сторон : 4:3
Частота кадров : 25,000 кадров/сек
Цветовое пространство : YUV
Субдискретизация насыщенности : 4:2:0
Битовая глубина : 8 бит
Тип развёртки : Прогрессивная
Метод сжатия : С потерями
Бит/(Пиксели*Кадры) : 0.204
Размер потока : 436 Мбайт (88%)
Библиотека кодирования : XviD 1.2.1 (UTC 2008-12-04)
Аудио
Идентификатор : 1
Формат : MPEG Audio
Версия формата : Version 1
Профиль формата : Layer 3
Режим : Joint stereo
Расширение режима : MS Stereo
Идентификатор кодека : 55
Идентификатор кодека/Подсказка : MP3
Продолжительность : 1 ч. 0 м.
Вид битрейта : Постоянный
Битрейт : 128 Кбит/сек
Каналы : 2 канала
Частота : 32,0 КГц
Метод сжатия : С потерями
Размер потока : 55,8 Мбайт (11%)
Выравнивание : Соединение по промежуткам
Продолжительность промежутка : 36 мс. (0,90 видеокадр)
Время предзагрузки промежутка : 72 мс.
Библиотека кодирования : LAME3.97
Download / Скачать

Хотите скачать бесплатно? Зарегистрируйтесь на сайте (ссылка на регистрацию). Pirat.ca - самый быстрый торрент трекер в рунете!

Как скачивать  ·   Что такое торрент  ·   Рейтинг и ограничения



Последний раз редактировалось: Железный DVD (2017-03-19 15:20), всего редактировалось 1 раз

Железный DVD ®

Лоцман

19

Пост 19-Мар-2017 15:11 (спустя 1 час 8 минут)

[Q] 

29 серий всего в раздаче
Единственная исправленная раздача где картинка 4:3 — лица не сплюснутые, круги круглые, квадраты квадратные.

_________________
Да мне мат кто ты и что ты


Последний раз редактировалось: Железный DVD (2017-03-20 20:22), всего редактировалось 1 раз
[Профиль]  [ЛС] 

igormogilev

Гроза морей

5273

Пост 20-Мар-2017 15:38 (спустя 1 день)

[Q] 

Раздающему респект! Прикольный сериал. Еще из той же оперы Осторожно, модерн! (56 серий из 56) / Сезон: 1-8 / Серии: 1-56 (Анна Пармас) [1996 г., комедия, VHSRip]
[Профиль]  [ЛС] 

lkas1010

Корсар

Пост 21-Мар-2017 21:37 (спустя 1 день 5 часов)

[Q] 

Отличный сериал! Автору респект!!!
На форуме  [Профиль]  [ЛС] 

zvezda_2s

Флибустьер

Пост 03-Фев-2018 10:20 (спустя 10 месяцев 12 дней)

[Q] 

Согласен - круто!!!
[Профиль]  [ЛС] 
Показать сообщения:    
Ответить на тему

Текущее время: Сегодня 14:44

Часовой пояс: GMT + 4



Вы не можете начинать темы
Вы не можете отвечать на сообщения
Вы не можете редактировать свои сообщения
Вы не можете удалять свои сообщения
Вы не можете голосовать в опросах
Вы не можете прикреплять файлы к сообщениям
Вы не можете скачивать файлы

Майнать ▼