[hentai] Королева ночи / Особняк удовольствия / Maison Plaisir / Gekka Bijin (Hisashi Okezawa) [OVA] [uncen] [2 из 2] [2002 г.] [BDSM, Anal, Oral, Bondage, Housewives, Sex, Torture] [DVDRip] [RUS/JAP/ENG + SUB(ENG)]

Ответить на тему
 
Автор
Сообщение

Пост 08-Июн-2014 23:55

[Q] 

ara1205

-Королева ночи / Особняк удовольствия / Maison Plaisir / Gekka Bijin
月花美人-- Год выпуска: 2002
Страна: Япония
Жанр: BDSM, Anal, Oral, Bondage, Housewives, Sex, Torture
Продолжительность: 2 серии по 30 мин
Тип: OVA (OAV)
Цензура: Отсутствует
Озвучка: Любительская (одноголосая, закадровая)
Субтитры: ENG-Режиссер: Hisashi Okezawa
Студия: Discovery-Описание: Хозяйка эротического пансиона развлекает её нового арендатора захватывающим способом. Он должен принять вызов, оставленный предыдущим владельцем неволи, и приучить её к непослушным играм,внутренней распущенности, и возмутительной сексуальной игре!- -Источник: DVDRip
Контейнер: MKV
Видео кодек: XviD
Видео: 640x480 23.98fps Bit: 900 Кбит/сек
Аудио RUS: MP3 48000Hz stereo 96 kbps
Аудио JAP: OGG Vorbis 48000Hz stereo 96Kbps
Аудио ENG: OGG Vorbis 48000Hz stereo 105Kbps-
Общее
Уникальный идентификатор : 241828381111578733800871909146727068415 (0xB5EE73BA1BE6B981B8B6B8B0B9B4B2FF)
Полное имя : C:\Users\Ромик\Documents\пиратка\Хентай\Особняк удовольствия\Maison Plaisir (RUS)\Maison.Plaisir.1.mkv
Формат : Matroska
Версия формата : Version 2
Размер файла : 256 Мбайт
Продолжительность : 28 м.
Режим общего битрейта : Переменный
Общий поток : 1243 Кбит/сек
Дата кодирования : UTC 2014-06-08 19:38:49
Программа кодирования : mkvmerge v5.6.0 ('Kenya Kane') built on Jun 29 2012 15:01:44
Библиотека кодирования : libebml v1.2.3 + libmatroska v1.3.0
Видео
Идентификатор : 1
Формат : MPEG-4 Visual
Профиль формата : [email protected]
Параметр BVOP формата : Да
Параметр QPel формата : Нет
Параметр GMC формата : Без точки перехода
Параметр матрицы формата : Default (H.263)
Идентификатор кодека : V_MS/VFW/FOURCC / XVID
Идентификатор кодека/Подсказка : XviD
Продолжительность : 28 м.
Битрейт : 898 Кбит/сек
Ширина : 640 пикселей
Высота : 480 пикселей
Соотношение сторон : 4:3
Режим частоты кадров : Постоянный
Частота кадров : 23,976 кадра/сек
Цветовое пространство : YUV
Субдискретизация насыщенности : 4:2:0
Битовая глубина : 8 бит
Тип развёртки : Прогрессивная
Метод сжатия : С потерями
Бит/(Пиксели*Кадры) : 0.122
Размер потока : 185 Мбайт (72%)
Библиотека кодирования : XviD 1.0.2 (UTC 2004-08-29)
Язык : Japanese
Default : Да
Forced : Нет
Аудио #1
Идентификатор : 2
Формат : MPEG Audio
Версия формата : Version 1
Профиль формата : Layer 3
Режим : Joint stereo
Расширение режима : MS Stereo
Режим смешивания : Header stripping
Идентификатор кодека : A_MPEG/L3
Идентификатор кодека/Подсказка : MP3
Продолжительность : 28 м.
Вид битрейта : Постоянный
Битрейт : 128 Кбит/сек
Каналы : 2 канала
Частота : 48,0 КГц
Метод сжатия : С потерями
Размер потока : 26,4 Мбайт (10%)
Язык : Russian
Default : Да
Forced : Нет
Аудио #2
Идентификатор : 3
Формат : Vorbis
Параметр Floor формата : 1
Идентификатор кодека : A_VORBIS
Продолжительность : 28 м.
Вид битрейта : Переменный
Битрейт : 96,0 Кбит/сек
Каналы : 2 канала
Частота : 44,1 КГц
Метод сжатия : С потерями
Размер потока : 19,8 Мбайт (8%)
Библиотека кодирования : libVorbis 1.0 (UTC 2002-07-17)
Язык : Japanese
Default : Нет
Forced : Нет
Аудио #3
Идентификатор : 4
Формат : Vorbis
Параметр Floor формата : 1
Идентификатор кодека : A_VORBIS
Продолжительность : 28 м.
Вид битрейта : Переменный
Битрейт : 96,0 Кбит/сек
Каналы : 2 канала
Частота : 44,1 КГц
Метод сжатия : С потерями
Размер потока : 19,8 Мбайт (8%)
Библиотека кодирования : libVorbis 1.0 (UTC 2002-07-17)
Язык : English
Default : Нет
Forced : Нет
Текст #1
Идентификатор : 5
Формат : UTF-8
Идентификатор кодека : S_TEXT/UTF8
Идентификатор кодека/Информация : UTF-8 Plain Text
Язык : English
Default : Нет
Forced : Нет
Текст #2
Идентификатор : 6
Формат : UTF-8
Идентификатор кодека : S_TEXT/UTF8
Идентификатор кодека/Информация : UTF-8 Plain Text
Язык : English
Default : Нет
Forced : Нет
-
-
-
Download / Скачать

Хотите скачать бесплатно? Зарегистрируйтесь на сайте (ссылка на регистрацию). Pirat.ca - самый быстрый торрент трекер в рунете!

Как скачивать  ·   Что такое торрент  ·   Рейтинг и ограничения

bota_nik

351

Пост 09-Июн-2014 22:43 (спустя 22 часа)

[Q] 

С новинок перешёл на что-то более старое =)

_________________
Паранойя - чрезвычайно утешительное состояние ума. Если вам кажется, что против вас что-то замышляют - значит вы что-то да стоите!(с)
[Профиль]  [ЛС] 

ara1205 ®

88716

Пост 10-Июн-2014 11:54 (спустя 13 часов)

[Q] 

545587С новинок перешёл на что-то более старое =)
Нету сейчас новинок с озвучкой. А озвучивать к сожалению времени нет ((
[Профиль]  [ЛС] 

Fallen

Флибустьер

101

Пост 22-Июн-2014 04:48 (спустя 11 дней)

[Q] 

545734
545587С новинок перешёл на что-то более старое =)
Нету сейчас новинок с озвучкой. А озвучивать к сожалению времени нет ((
А я наоборот предпочитаю субтитры озвучке)
Другой вопрос в том что новинок без цензуры почти не делают:)

_________________
Sputnik.fm - ты будешь в моей памяти навсегда.
[Профиль]  [ЛС] 

RAHAAON

Морской Волк

Пост 08-Янв-2017 16:02 (спустя 2 года 6 месяцев)

[Q] 

anime79
Пасибки автору!
[Профиль]  [ЛС] 

RAHAAON

Морской Волк

Пост 29-Янв-2017 18:02 (спустя 21 день)

[Q] 

ДАЙТЕ СИДЫ!!!
[Профиль]  [ЛС] 

fishman

Флибустьер

Пост 03-Фев-2018 19:14 (спустя 1 год)

[Q] 

Спасибо!!! rum

_________________
|___|___|___|___|___|___|___|__|__
__|__|__|_Биться головой_|___|___|
|___|___|___|__сюда!!___|___|__|__
__|___|___|___|___|___|___|__|__
[Профиль]  [ЛС] 
Показать сообщения:    
Ответить на тему

Текущее время: Сегодня 18:00

Часовой пояс: GMT + 4



Вы не можете начинать темы
Вы не можете отвечать на сообщения
Вы не можете редактировать свои сообщения
Вы не можете удалять свои сообщения
Вы не можете голосовать в опросах
Вы не можете прикреплять файлы к сообщениям
Вы не можете скачивать файлы

Майнать ▼