Колеса Страны Советов (8 серий из 8) (Андрей Крюковский) [2011-2012, Документальный, SATRip] (Original)

Ответить на тему
 
Автор
Сообщение

Пост 06-Ноя-2011 21:59

[Q] 

serg_bmw

Гроза морей

Колеса Страны Советов Производство: Россия
Год: 2011
Жанр: Документальный
Продолжительность: 8 серий по ~34 минуты
Перевод: Не требуется
Оригинальный аудиопоток: Русский
Режиссер: Андрей Крюковский
Описание: Бытует мнение, что советская автомобильная промышленность всегда находилась в арьергарде мирового технического прогресса. Что, дескать, собственных оригинальных конструкций в СССР не было, а на конвейер попадали лишь устаревшие копии иностранных машин.
Так ли это на самом деле?
Обмана и недомолвок в официальной истории отечественного автопрома было хоть отбавляй. Государственно-партийное заклинание «советское — значит лучшее» вынуждало искажать факты и цифры, закрывать глаза на ошибки и раздувать масштабы побед. После развала СССР тенденция поменялась: ничего хорошего никогда не было и уже не будет. Нам предстоит установить в этом вопросе разумный паритет. Для этого мы будем привлекать архивные материалы, выслушивать мнение независимых экспертов, вместе с профессиональными механиками разбираться в конструкции и характеристиках отечественных автолегенд.
Формат : AVI
Формат/Информация : Audio Video Interleave
Размер файла : 514 Мбайт
Продолжительность : 33 м.
Общий поток : 2138 Кбит/сек
Программа кодирования : Lavf52.39.0
Видео
Идентификатор : 0
Формат : MPEG-4 Visual
Профиль формата : [email protected]
Параметр BVOP формата : Нет
Параметр QPel формата : Нет
Параметр GMC формата : Без точки перехода
Параметр матрицы формата : Default (H.263)
Идентификатор кодека : DX50
Идентификатор кодека/Подсказка : DivX 5
Продолжительность : 33 м.
Битрейт : 1997 Кбит/сек
Ширина : 704 пикселя
Высота : 576 пикселей
Соотношение сторон : 1,222
Частота кадров : 25,000 кадров/сек
Стандарт вещания : PAL
Цветовое пространство : YUV
Субдискретизация насыщенности : 4:2:0
Битовая глубина : 8 бит
Тип развёртки : Прогрессивная
Метод сжатия : С потерями
Бит/(Пиксели*Кадры) : 0.197
Размер потока : 480 Мбайт (93%)
Библиотека кодирования : Lavc52.36.0
Аудио
Идентификатор : 1
Формат : MPEG Audio
Версия формата : Version 1
Профиль формата : Layer 3
Режим : Joint stereo
Расширение режима : MS Stereo
Идентификатор кодека : 55
Идентификатор кодека/Подсказка : MP3
Продолжительность : 33 м.
Вид битрейта : Постоянный
Битрейт : 128 Кбит/сек
Каналы : 2 канала
Частота : 44,1 КГц
Метод сжатия : С потерями
Размер потока : 30,8 Мбайт (6%)
Выравнивание : Соединение по промежуткам
Продолжительность промежутка : 26 мс. (0,65 видеокадр)
Время предзагрузки промежутка : 26 мс.
Формат : AVI
Формат/Информация : Audio Video Interleave
Размер файла : 483 Мбайт
Продолжительность : 31 м.
Общий поток : 2138 Кбит/сек
Программа кодирования : Lavf52.39.0
Видео
Идентификатор : 0
Формат : MPEG-4 Visual
Профиль формата : [email protected]
Параметр BVOP формата : Нет
Параметр QPel формата : Нет
Параметр GMC формата : Без точки перехода
Параметр матрицы формата : Default (H.263)
Идентификатор кодека : DX50
Идентификатор кодека/Подсказка : DivX 5
Продолжительность : 31 м.
Битрейт : 1998 Кбит/сек
Ширина : 704 пикселя
Высота : 576 пикселей
Соотношение сторон : 1,222
Частота кадров : 25,000 кадров/сек
Стандарт вещания : PAL
Цветовое пространство : YUV
Субдискретизация насыщенности : 4:2:0
Битовая глубина : 8 бит
Тип развёртки : Прогрессивная
Метод сжатия : С потерями
Бит/(Пиксели*Кадры) : 0.197
Размер потока : 451 Мбайт (93%)
Библиотека кодирования : Lavc52.36.0
Аудио
Идентификатор : 1
Формат : MPEG Audio
Версия формата : Version 1
Профиль формата : Layer 3
Режим : Joint stereo
Расширение режима : MS Stereo
Идентификатор кодека : 55
Идентификатор кодека/Подсказка : MP3
Продолжительность : 31 м.
Вид битрейта : Постоянный
Битрейт : 128 Кбит/сек
Каналы : 2 канала
Частота : 44,1 КГц
Метод сжатия : С потерями
Размер потока : 28,9 Мбайт (6%)
Выравнивание : Соединение по промежуткам
Продолжительность промежутка : 26 мс. (0,65 видеокадр)
Время предзагрузки промежутка : 26 мс.
Формат : AVI
Формат/Информация : Audio Video Interleave
Размер файла : 529 Мбайт
Продолжительность : 34 м.
Общий поток : 2137 Кбит/сек
Программа кодирования : Lavf52.39.0
Видео
Идентификатор : 0
Формат : MPEG-4 Visual
Профиль формата : [email protected]
Параметр BVOP формата : Нет
Параметр QPel формата : Нет
Параметр GMC формата : Без точки перехода
Параметр матрицы формата : Default (H.263)
Идентификатор кодека : DX50
Идентификатор кодека/Подсказка : DivX 5
Продолжительность : 34 м.
Битрейт : 1997 Кбит/сек
Ширина : 704 пикселя
Высота : 576 пикселей
Соотношение сторон : 1,222
Частота кадров : 25,000 кадров/сек
Стандарт вещания : PAL
Цветовое пространство : YUV
Субдискретизация насыщенности : 4:2:0
Битовая глубина : 8 бит
Тип развёртки : Прогрессивная
Метод сжатия : С потерями
Бит/(Пиксели*Кадры) : 0.197
Размер потока : 494 Мбайт (93%)
Библиотека кодирования : Lavc52.36.0
Аудио
Идентификатор : 1
Формат : MPEG Audio
Версия формата : Version 1
Профиль формата : Layer 3
Режим : Joint stereo
Расширение режима : MS Stereo
Идентификатор кодека : 55
Идентификатор кодека/Подсказка : MP3
Продолжительность : 34 м.
Вид битрейта : Постоянный
Битрейт : 128 Кбит/сек
Каналы : 2 канала
Частота : 44,1 КГц
Метод сжатия : С потерями
Размер потока : 31,7 Мбайт (6%)
Выравнивание : Соединение по промежуткам
Продолжительность промежутка : 26 мс. (0,65 видеокадр)
Время предзагрузки промежутка : 26 мс.
Формат : AVI
Формат/Информация : Audio Video Interleave
Размер файла : 581 Мбайт
Продолжительность : 37 м.
Общий поток : 2140 Кбит/сек
Программа кодирования : Lavf52.39.0
Видео
Идентификатор : 0
Формат : MPEG-4 Visual
Профиль формата : [email protected]
Параметр BVOP формата : Нет
Параметр QPel формата : Нет
Параметр GMC формата : Без точки перехода
Параметр матрицы формата : Default (H.263)
Идентификатор кодека : DX50
Идентификатор кодека/Подсказка : DivX 5
Продолжительность : 37 м.
Битрейт : 2000 Кбит/сек
Ширина : 704 пикселя
Высота : 576 пикселей
Соотношение сторон : 1,222
Частота кадров : 25,000 кадров/сек
Стандарт вещания : PAL
Цветовое пространство : YUV
Субдискретизация насыщенности : 4:2:0
Битовая глубина : 8 бит
Тип развёртки : Прогрессивная
Метод сжатия : С потерями
Бит/(Пиксели*Кадры) : 0.197
Размер потока : 543 Мбайт (93%)
Библиотека кодирования : Lavc52.36.0
Аудио
Идентификатор : 1
Формат : MPEG Audio
Версия формата : Version 1
Профиль формата : Layer 3
Режим : Joint stereo
Расширение режима : MS Stereo
Идентификатор кодека : 55
Идентификатор кодека/Подсказка : MP3
Продолжительность : 37 м.
Вид битрейта : Постоянный
Битрейт : 128 Кбит/сек
Каналы : 2 канала
Частота : 44,1 КГц
Метод сжатия : С потерями
Размер потока : 34,8 Мбайт (6%)
Выравнивание : Соединение по промежуткам
Продолжительность промежутка : 26 мс. (0,65 видеокадр)
Время предзагрузки промежутка : 26 мс.
Библиотека кодирования : LAME3.98.2
Формат : AVI
Формат/Информация : Audio Video Interleave
Размер файла : 493 Мбайт
Продолжительность : 37 м.
Общий поток : 1821 Кбит/сек
Программа кодирования : VirtualDubMod 1.5.10.1 (build 2366/release)
Библиотека кодирования : VirtualDubMod build 2366/release
Видео
Идентификатор : 0
Формат : MPEG-4 Visual
Профиль формата : [email protected]
Параметр BVOP формата : Нет
Параметр QPel формата : Нет
Параметр GMC формата : Без точки перехода
Параметр матрицы формата : Default (H.263)
Идентификатор кодека : XVID
Идентификатор кодека/Подсказка : XviD
Продолжительность : 37 м.
Битрейт : 1684 Кбит/сек
Ширина : 640 пикселей
Высота : 480 пикселей
Соотношение сторон : 4:3
Частота кадров : 25,000 кадров/сек
Цветовое пространство : YUV
Субдискретизация насыщенности : 4:2:0
Битовая глубина : 8 бит
Тип развёртки : Прогрессивная
Метод сжатия : С потерями
Бит/(Пиксели*Кадры) : 0.219
Размер потока : 456 Мбайт (92%)
Библиотека кодирования : Lavc52.83.0
Аудио
Идентификатор : 1
Формат : MPEG Audio
Версия формата : Version 1
Профиль формата : Layer 3
Идентификатор кодека : 55
Идентификатор кодека/Подсказка : MP3
Продолжительность : 37 м.
Вид битрейта : Постоянный
Битрейт : 128 Кбит/сек
Каналы : 2 канала
Частота : 44,1 КГц
Метод сжатия : С потерями
Размер потока : 34,7 Мбайт (7%)
Выравнивание : Разделение по промежуткам
Продолжительность промежутка : 40 мс. (1,00 видеокадр)
Время предзагрузки промежутка : 500 мс.
Библиотека кодирования : LAME3.98r
Настройки программы : -m s -V 4 -q 2 -lowpass 17 -b 128
Формат : AVI
Формат/Информация : Audio Video Interleave
Размер файла : 501 Мбайт
Продолжительность : 38 м.
Общий поток : 1840 Кбит/сек
Программа кодирования : VirtualDubMod 1.5.10.1 (build 2366/release)
Библиотека кодирования : VirtualDubMod build 2366/release
Видео
Идентификатор : 0
Формат : MPEG-4 Visual
Профиль формата : Advanced [email protected]
Параметр BVOP формата : 2
Параметр QPel формата : Нет
Параметр GMC формата : Без точки перехода
Параметр матрицы формата : Default (H.263)
Режим смешивания : Сжатый битовый поток
Идентификатор кодека : XVID
Идентификатор кодека/Подсказка : XviD
Продолжительность : 38 м.
Битрейт : 1703 Кбит/сек
Ширина : 640 пикселей
Высота : 480 пикселей
Соотношение сторон : 4:3
Частота кадров : 25,000 кадров/сек
Цветовое пространство : YUV
Субдискретизация насыщенности : 4:2:0
Битовая глубина : 8 бит
Тип развёртки : Прогрессивная
Метод сжатия : С потерями
Бит/(Пиксели*Кадры) : 0.222
Размер потока : 463 Мбайт (93%)
Библиотека кодирования : XviD 1.2.1 (UTC 2008-12-04)
Аудио
Идентификатор : 1
Формат : MPEG Audio
Версия формата : Version 1
Профиль формата : Layer 3
Идентификатор кодека : 55
Идентификатор кодека/Подсказка : MP3
Продолжительность : 38 м.
Вид битрейта : Постоянный
Битрейт : 128 Кбит/сек
Каналы : 2 канала
Частота : 44,1 КГц
Метод сжатия : С потерями
Размер потока : 34,8 Мбайт (7%)
Выравнивание : Разделение по промежуткам
Продолжительность промежутка : 40 мс. (1,00 видеокадр)
Время предзагрузки промежутка : 500 мс.
Библиотека кодирования : LAME3.98r
Настройки программы : -m s -V 4 -q 2 -lowpass 17 -b 128
Формат : AVI
Формат/Информация : Audio Video Interleave
Размер файла : 501 Мбайт
Продолжительность : 38 м.
Общий поток : 1840 Кбит/сек
Программа кодирования : VirtualDubMod 1.5.10.1 (build 2366/release)
Библиотека кодирования : VirtualDubMod build 2366/release
Видео
Идентификатор : 0
Формат : MPEG-4 Visual
Профиль формата : Advanced Simpl[email protected]
Параметр BVOP формата : 2
Параметр QPel формата : Нет
Параметр GMC формата : Без точки перехода
Параметр матрицы формата : Default (H.263)
Режим смешивания : Сжатый битовый поток
Идентификатор кодека : XVID
Идентификатор кодека/Подсказка : XviD
Продолжительность : 38 м.
Битрейт : 1703 Кбит/сек
Ширина : 640 пикселей
Высота : 480 пикселей
Соотношение сторон : 4:3
Частота кадров : 25,000 кадров/сек
Цветовое пространство : YUV
Субдискретизация насыщенности : 4:2:0
Битовая глубина : 8 бит
Тип развёртки : Прогрессивная
Метод сжатия : С потерями
Бит/(Пиксели*Кадры) : 0.222
Размер потока : 464 Мбайт (93%)
Библиотека кодирования : XviD 1.2.1 (UTC 2008-12-04)
Аудио
Идентификатор : 1
Формат : MPEG Audio
Версия формата : Version 1
Профиль формата : Layer 3
Идентификатор кодека : 55
Идентификатор кодека/Подсказка : MP3
Продолжительность : 38 м.
Вид битрейта : Постоянный
Битрейт : 128 Кбит/сек
Каналы : 2 канала
Частота : 44,1 КГц
Метод сжатия : С потерями
Размер потока : 34,8 Мбайт (7%)
Выравнивание : Разделение по промежуткам
Продолжительность промежутка : 40 мс. (1,00 видеокадр)
Время предзагрузки промежутка : 500 мс.
Библиотека кодирования : LAME3.98r
Настройки программы : -m s -V 4 -q 2 -lowpass 17 -b 128
Формат : AVI
Формат/Информация : Audio Video Interleave
Размер файла : 501 Мбайт
Продолжительность : 38 м.
Общий поток : 1840 Кбит/сек
Программа кодирования : VirtualDubMod 1.5.10.1 (build 2366/release)
Библиотека кодирования : VirtualDubMod build 2366/release
Видео
Идентификатор : 0
Формат : MPEG-4 Visual
Профиль формата : Advanced [email protected]
Параметр BVOP формата : 2
Параметр QPel формата : Нет
Параметр GMC формата : Без точки перехода
Параметр матрицы формата : Default (H.263)
Режим смешивания : Сжатый битовый поток
Идентификатор кодека : XVID
Идентификатор кодека/Подсказка : XviD
Продолжительность : 38 м.
Битрейт : 1703 Кбит/сек
Ширина : 640 пикселей
Высота : 480 пикселей
Соотношение сторон : 4:3
Частота кадров : 25,000 кадров/сек
Цветовое пространство : YUV
Субдискретизация насыщенности : 4:2:0
Битовая глубина : 8 бит
Тип развёртки : Прогрессивная
Метод сжатия : С потерями
Бит/(Пиксели*Кадры) : 0.222
Размер потока : 464 Мбайт (93%)
Библиотека кодирования : XviD 1.2.1 (UTC 2008-12-04)
Аудио
Идентификатор : 1
Формат : MPEG Audio
Версия формата : Version 1
Профиль формата : Layer 3
Идентификатор кодека : 55
Идентификатор кодека/Подсказка : MP3
Продолжительность : 38 м.
Вид битрейта : Постоянный
Битрейт : 128 Кбит/сек
Каналы : 2 канала
Частота : 44,1 КГц
Метод сжатия : С потерями
Размер потока : 34,9 Мбайт (7%)
Выравнивание : Разделение по промежуткам
Продолжительность промежутка : 40 мс. (1,00 видеокадр)
Время предзагрузки промежутка : 500 мс.
Библиотека кодирования : LAME3.98r
Настройки программы : -m s -V 4 -q 2 -lowpass 17 -b 128
Источник/Качество: SATRip
Формат: AVI
Аудио кодек: MP3
Видео: 704x576, 25,000 кадров/сек, 1997-2000 Кбит/сек, 0.197 Бит/(Пиксели*Кадры)
Аудио: 44,1 КГц, MP3, 2 канала, 128 Кбит/сек



Download / Скачать

Хотите скачать бесплатно? Зарегистрируйтесь на сайте (ссылка на регистрацию). Pirat.ca - самый быстрый торрент трекер в рунете!

Как скачивать  ·   Что такое торрент  ·   Рейтинг и ограничения



Последний раз редактировалось: serg_bmw (2013-01-08 15:30), всего редактировалось 22 раз(а)

ParMarVarKar

Шкипер

Пост 22-Янв-2012 19:52 (спустя 2 месяца 15 дней)

[Q] 

Спасибо за раздачу!
[Профиль]  [ЛС] 

serg_bmw ®

Гроза морей

652

Пост 19-Июл-2012 23:05 (спустя 5 месяцев 28 дней)

[Q] 

Всегда пожалуйста!!!

_________________
[Профиль]  [ЛС] 

cergo

Гроза морей

20669

Пост 07-Янв-2013 22:41 (спустя 5 месяцев 18 дней)

[Q] 

serg_bmw, кнопки нажал. Удачи.
[Профиль]  [ЛС] 

serg_bmw ®

Гроза морей

652

Пост 08-Янв-2013 15:33 (спустя 16 часов)

[Q] 

Добавил восьмую серию

_________________
[Профиль]  [ЛС] 

logan0123

Штурман

Пост 08-Янв-2013 19:15 (спустя 3 часа)

[Q] 


_________________
Люди я здесь где-то совесть потерял, нашедшему просьба не возвращать.
[Профиль]  [ЛС] 

serg_bmw ®

Гроза морей

652

Пост 08-Янв-2013 20:15 (спустя 1 час)

[Q] 

301868

_________________
[Профиль]  [ЛС] 

Disturb

Шкипер

Пост 09-Янв-2013 00:44 (спустя 4 часа)

[Q] 


_________________
Никогда не сдавайся и ты увидишь как сдаются другие...
[Профиль]  [ЛС] 

Nitro

Корсар

Пост 09-Янв-2013 11:53 (спустя 11 часов)

[Q] 

[Профиль]  [ЛС] 

serg_bmw ®

Гроза морей

652

Пост 09-Янв-2013 16:56 (спустя 5 часов)

[Q] 

302199
что бы бочку кинуть - нужно еще и на кнопочку нажать

_________________
[Профиль]  [ЛС] 

Disturb

Шкипер

Пост 12-Янв-2013 02:22 (спустя 2 дня 9 часов)

[Q] 

302497
302199
что бы бочку кинуть - нужно еще и на кнопочку нажать
Буду знать aa

_________________
Никогда не сдавайся и ты увидишь как сдаются другие...
[Профиль]  [ЛС] 

MihaMiha66

Морской Волк

Пост 19-Янв-2013 00:42 (спустя 6 дней)

[Q] 

[Профиль]  [ЛС] 

transdraiver

Лоцман

Пост 25-Янв-2013 19:14 (спустя 6 дней)

[Q] 

[Профиль]  [ЛС] 

keppi

Морской Волк

1928

Пост 13-Апр-2013 04:16 (спустя 2 месяца 18 дней)

[Q] 


_________________
Если нет своей цели в жизни, то будешь работать на того, у кого она есть.
[Профиль]  [ЛС] 

астролог

Морской Волк

Пост 27-Окт-2013 04:26 (спустя 6 месяцев 14 дней)

[Q] 

[thumb] Лови бочку Мне понравилось [/thumb]
[Профиль]  [ЛС] 

rivera-ekb

Лоцман

Пост 28-Янв-2014 22:43 (спустя 3 месяца 1 день)

[Q] 

Спасибо! Побольше подобных фильмов. Они не засоряют мозг, а наполняют его.
[Профиль]  [ЛС] 

zvezda_2s

Флибустьер

Пост 06-Фев-2018 20:33 (спустя 4 года)

[Q] 

Предыдущее сообщение в точку!
[Профиль]  [ЛС] 
Показать сообщения:    
Ответить на тему

Текущее время: Сегодня 21:44

Часовой пояс: GMT + 4



Вы не можете начинать темы
Вы не можете отвечать на сообщения
Вы не можете редактировать свои сообщения
Вы не можете удалять свои сообщения
Вы не можете голосовать в опросах
Вы не можете прикреплять файлы к сообщениям
Вы не можете скачивать файлы

Майнать ▼