Нобелевская медаль для министра Геббельса (Екатерина Гальперина) [2009 г., документальный, SATRip]

Ответить на тему
 
Автор
Сообщение

Пост 02-Ноя-2011 19:45

[Q] 

Степаныч

Нобелевская медаль для министра Геббельса
Год выпуска: 2009
Производство: Россия
Жанр: документальный
Продолжительность: 00:39:08
Режиссер: Екатерина Гальперина
Автор и ведущий: Леонид Млечин
Описание: Предательство в годы Второй мировой войны оказалось выгодным бизнесом. Охотнее других Гитлеру помогали словаки и хорваты, которым фюрер подарил по государству. Многие другие европейские политики тоже быстро сообразили, что могут получить от Гитлера хорошую цену за свое пособничество. История национального предательства в фильме Леонида Млечина "Нобелевская медаль для министра Геббельса".
Источник/Качество: SATRip
Формат: AVI
Видео кодек: DivX
Аудио кодек: MP3
Видео: MPEG4, DivX 5, 640x480 (4/3), 25.000 fps, 1 291 Kbps (0.168 bit/pixel)
Аудио: MP3, 48.0 KHz, 2 ch, 128 Kbps, CBR
Формат : AVI
Формат/Информация : Audio Video Interleave
Размер файла : 400 Мбайт
Продолжительность : 39 м.
Общий поток : 1428 Кбит/сек
Программа кодирования : FairUse Wizard - http://fairusewizard.com
Библиотека кодирования : The best and REALLY easy backup tool
Видео
Идентификатор : 0
Формат : MPEG-4 Visual
Параметр BVOP формата : 1
Параметр QPel формата : Нет
Параметр GMC формата : Без точки перехода
Параметр матрицы формата : Default (H.263)
Режим смешивания : Сжатый битовый поток
Идентификатор кодека : DX50
Идентификатор кодека/Подсказка : DivX 5
Продолжительность : 39 м.
Битрейт : 1291 Кбит/сек
Ширина : 640 пикс.
Высота : 480 пикс.
Соотношение сторон : 4:3
Частота кадров : 25,000 кадр/сек
Цветовое пространство : YUV
Подвыборка цветности : 4:2:0
Битовая глубина : 8 бит
Тип развёртки : Прогрессивная
Метод сжатия : С потерями
Бит/(Пиксели*Кадры) : 0.168
Размер потока : 361 Мбайт (90%)
Библиотека кодирования : DivX 6.8.5 (UTC 2009-08-20)
Аудио
Идентификатор : 1
Формат : MPEG Audio
Версия формата : Version 1
Профиль формата : Layer 3
Режим : Joint stereo
Расширение режима : MS Stereo
Идентификатор кодека : 55
Идентификатор кодека/Подсказка : MP3
Продолжительность : 39 м.
Вид битрейта : Постоянный
Битрейт : 128 Кбит/сек
Канал(ы) : 2 канала(ов)
Частота : 48,0 КГц
Метод сжатия : С потерями
Размер потока : 35,8 Мбайт (9%)
Выравнивание : Соединение по промежуткам
Продолжительность промежутка : 40 мс. (1,00 видеокадр)
Время предзагрузки промежутка : 504 ms
Библиотека кодирования : LAME3.97
Настройки программы : -m j -V 4 -q 2 -lowpass 17 -b 128




Download / Скачать

Хотите скачать бесплатно? Зарегистрируйтесь на сайте (ссылка на регистрацию). Pirat.ca - самый быстрый торрент трекер в рунете!

Как скачивать  ·   Что такое торрент  ·   Рейтинг и ограничения



Последний раз редактировалось: Степаныч (2011-11-07 10:33), всего редактировалось 1 раз

Боцман

1813

Пост 03-Ноя-2011 04:45 (спустя 9 часов)

[Q] 

Встал на закачку! Скачаю - поддержу раздачу...

_________________
не верь не бойся не проси не плачь...
[Профиль]  [ЛС] 

Степаныч ®

874

Пост 03-Ноя-2011 08:50 (спустя 4 часа)

[Q] 

спасибо за помощь у меня комп работает 24/7 а вот скорость интернета маленькая активных раздач много...

_________________
орфография как кунг-фу, истинный мастер не использует без надобности
[Профиль]  [ЛС] 

lis777

Корсар

Пост 11-Апр-2012 22:46 (спустя 5 месяцев 8 дней)

[Q] 

[Профиль]  [ЛС] 

Климентий Чугункин

Морской Волк

Пост 08-Май-2015 21:58 (спустя 3 года)

[Q] 

Познавательный фильм, неплохо для анализа истории самой страшной войны
[Профиль]  [ЛС] 

zvezda_2s

Флибустьер

Пост 06-Фев-2018 20:39 (спустя 2 года 8 месяцев)

[Q] 

Надо попробовать...
[Профиль]  [ЛС] 
Показать сообщения:    
Ответить на тему

Текущее время: Сегодня 13:37

Часовой пояс: GMT + 4



Вы не можете начинать темы
Вы не можете отвечать на сообщения
Вы не можете редактировать свои сообщения
Вы не можете удалять свои сообщения
Вы не можете голосовать в опросах
Вы не можете прикреплять файлы к сообщениям
Вы не можете скачивать файлы

Майнать ▼