Вселенная / The Universe / Сезон: 6 / Серии: 1-7 из 14 (Лаура Верклан / Laura Verklan, Колин Кэмпбелл / Colin Campbell, Тони Лонг / Tony Long) [2011 г., научно-популярный, BDRip, 720p] VO + Original (Eng)+ Sub (Rus, Eng) [обновляемая]

Ответить на тему
 
Автор
Сообщение

Пост 05-Сен-2014 17:26

[Q] 

TERMOS

Легенда

-Вселенная / The Universe
(6 сезон)
«Вековые тайны открываются»
-- Производство: США | Flight 33 Productions
Жанр: научно-популярный
Год выпуска: 2011 г.
Продолжительность: 7x ~00:44:00
Перевод: Профессиональный (одноголосый, закадровый)
Оригинальный аудиопоток: английский
Режиссер: Лаура Верклан / Laura Verklan, Колин Кэмпбелл / Colin Campbell, Тони Лонг / Tony Long-В ролях: Эрик Томпсон (рассказчик), Алекс Филиппенко, Лаура Данли, Нил Тайсон, Клиффорд Джонсон, Роб Рой Бритт, Эми Мейнзер, доктор Кевин Р. Грейзер, Грег Лофлин, Мичио Каку, Мишель Таллер и др.-Описание: В этом сериале с помощью современной компьютерной графики и, основываясь на передовых исследованиях в области космоса, создатели фильма смогли воссоздать то, что происходит на других планетах, в других галактиках, вообразить какие формы жизни могли бы развиться в других атмосферах. Вы сможете увидеть космические бедствия, параллельные вселенные, скорость света и узнать многое другое о тайнах космоса.
- - -Качество видео: BDRip
Контейнер: MKV
Стандарт разрешения: 720p
Видео кодек: H.264/AVC
Аудио кодек: DTS
Видео: 1280x720, 23.976 fps, ~6000 kbps avg
Аудио: Russian: 48 kHz, DTS, 3/2 (L,C,R,l,r) + LFE ch, ~1536.00 kbps - |Одноголосый закадровый, Blu-Ray|
Аудио #2: English: 48 kHz, DTS, 3/2 (L,C,R,l,r) + LFE ch, ~1536.00 kbps
Cубтитры: Russian, English
01: Catastrophes that Changed the Planets / Катастрофы в далеких мирах
02: Nemesis: The Sun's Evil Twin / Немезида - зловещий двойник Солнца
03: How the Solar System Was Made / Рождение Солнечной системы
04: Crash Landing on Mars / Аварийная посадка на Марс
05: Worst Days on Planet Earth / Худшие дни на планете Земля
06: God and the Universe / Бог и Вселенная
07: UFO: The Real Deal / НЛО: Подлинная история

08: How Big, How Far, How Fast / Огромное, далекое, быстрое
09: Our Place in the Milky Way / Наше место в Млечном пути
10: Alien Sounds / Звуки космоса
11: Deep Freeze / Глубокая заморозка
12: Microscopic Universe / Микро-Вселенная
13: Ride the Comet / Верхом на комете
14: When Space Changed History / Как космос изменял историю
Код:
General
Complete name                    : T:\Uploads\Pirat.Ca\The Universe - Season 6 (2011) [BDRip.720p]\The.Universe.S06E01.2011.720p.BluRay.Rus.Eng.HDCLUB.mkv
Format                           : Matroska
File size                        : 2.82 GiB
Duration                         : 44mn 7s
Overall bit rate                 : 9 162 Kbps
Movie name                       : Create by DeTorquemada For HDCLUB
Encoded date                     : UTC 2014-09-05 12:57:52
Writing application              : mkvmerge v6.0.0 ('Coming Up For Air') built on Jan 20 2013 09:52:00
Writing library                  : libebml v1.3.0 + libmatroska v1.4.0
Video
ID                               : 1
Format                           : AVC
Format/Info                      : Advanced Video Codec
Format profile                   : [email protected]
Format settings, CABAC           : Yes
Format settings, ReFrames        : 7 frames
Muxing mode                      : Container [email protected]
Codec ID                         : V_MPEG4/ISO/AVC
Duration                         : 44mn 7s
Bit rate                         : 5 960 Kbps
Width                            : 1 280 pixels
Height                           : 720 pixels
Display aspect ratio             : 16:9
Frame rate                       : 23.976 fps
Color space                      : YUV
Chroma subsampling               : 4:2:0
Bit depth                        : 8 bits
Scan type                        : Progressive
Bits/(Pixel*Frame)               : 0.270
Stream size                      : 1.84 GiB (65%)
Title                            : The Universe: Catastrophes that Changed the Planets / Вселенная: Сезон 6, эпизод 1: Катастрофы, которые изменили планеты (2011) - Release for HDCLUB
Writing library                  : x264 core 138 r2358 9e941d1
Encoding settings                : cabac=1 / ref=7 / deblock=1:-3:-3 / analyse=0x3:0x113 / me=umh / subme=10 / psy=1 / psy_rd=1.00:0.00 / mixed_ref=1 / me_range=48 / chroma_me=1 / trellis=2 / 8x8dct=1 / cqm=0 / deadzone=21,11 / fast_pskip=1 / chroma_qp_offset=-2 / threads=6 / lookahead_threads=1 / sliced_threads=0 / nr=0 / decimate=1 / interlaced=0 / bluray_compat=0 / constrained_intra=0 / bframes=3 / b_pyramid=2 / b_adapt=2 / b_bias=0 / direct=1 / weightb=1 / open_gop=0 / weightp=2 / keyint=240 / keyint_min=23 / scenecut=40 / intra_refresh=0 / rc_lookahead=65 / rc=crf / mbtree=0 / crf=17.0 / qcomp=0.60 / qpmin=0 / qpmax=69 / qpstep=4 / vbv_maxrate=50000 / vbv_bufsize=62500 / crf_max=0.0 / nal_hrd=none / ip_ratio=1.40 / pb_ratio=1.30 / aq=1:0.80
Language                         : English
Matrix coefficients              : BT.709-5, BT.1361, IEC 61966-2-4 709, SMPTE RP177
Audio #1
ID                               : 2
Format                           : DTS
Format/Info                      : Digital Theater Systems
Codec ID                         : A_DTS
Duration                         : 44mn 7s
Bit rate mode                    : Constant
Bit rate                         : 1 510 Kbps
Channel(s)                       : 6 channels
Channel positions                : Front: L C R, Side: L R, LFE
Sampling rate                    : 48.0 KHz
Bit depth                        : 24 bits
Stream size                      : 476 MiB (16%)
Title                            : 48KHz/24bit, DTS, 3/2 (L,C,R,l,r) + LFE ch, 1536 kbps - Профессиональный oдноголосый
Language                         : Russian
Audio #2
ID                               : 3
Format                           : DTS
Format/Info                      : Digital Theater Systems
Codec ID                         : A_DTS
Duration                         : 44mn 7s
Bit rate mode                    : Constant
Bit rate                         : 1 510 Kbps
Channel(s)                       : 6 channels
Channel positions                : Front: L C R, Side: L R, LFE
Sampling rate                    : 48.0 KHz
Bit depth                        : 24 bits
Stream size                      : 476 MiB (16%)
Title                            : 48KHz/24bit, DTS, 3/2 (L,C,R,l,r) + LFE ch, 1536 kbps
Language                         : English
Text #1
ID                               : 4
Format                           : UTF-8
Codec ID                         : S_TEXT/UTF8
Codec ID/Info                    : UTF-8 Plain Text
Title                            : Subtitles/Captions
Language                         : Russian
Text #2
ID                               : 5
Format                           : UTF-8
Codec ID                         : S_TEXT/UTF8
Codec ID/Info                    : UTF-8 Plain Text
Title                            : Subtitles/Captions
Language                         : English
Menu
00:00:00.000                     : en:
00:01:39.724                     : en:
00:11:31.023                     : en:
00:23:01.254                     : en:
00:30:35.458                     : en:
00:36:35.526                     : en:
00:44:02.222                     : en:
При каждом добавлении создётся новый торрент. Чтобы начать докачку новой серии, пользователям необходимо сделать следующее:
(1) остановить скачивание,
(2) удалить старый торрент у себя из клиента (старые серии удалять не надо),
(3) скачать новый торрент и запустить его у себя в клиенте, при этом указать клиенту путь в старую папку куда и должно происходить скачивание новых серий.
Ваш клиент при этом должен произвести хеширование (проверку) старой папки и будет докачивать только те серии которых у вас ещё нет. Старые серии при этом не удаляются, а продолжают раздаваться!
Eсли вы уже удалили старые серии, то предотвратить повторную закачку старых серий можно, отжав галочку в соответствующих местах при запуске нового торрента. (по возможности, желательно не удалять старые серии как можно дольше чтобы релизёр не столько продолжал раздавать старые серии, а смог сконцентрироваться на новых)
Download / Скачать

Хотите скачать бесплатно? Зарегистрируйтесь на сайте (ссылка на регистрацию). Pirat.ca - самый быстрый торрент трекер в рунете!

Как скачивать  ·   Что такое торрент  ·   Рейтинг и ограничения

vovan200976

Флибустьер

Пост 05-Сен-2014 18:01 (спустя 35 минут)

[Q] 

Эх если-бы и вправду наше человечество смогло-бы хоть куда-нибудь слетать , то передача была-бы на УРА !!!! Лови бочку
[Профиль]  [ЛС] 

kerr138

Шкипер

Пост 05-Сен-2014 22:46 (спустя 4 часа)

[Q] 

Обожаю фильмы из этой серии. Вот если-бы ещё скорости... А то скорость в 30KB/s при моих показателях... :

это не реально скачать.
[Профиль]  [ЛС] 

TERMOS ®

Легенда

19860

Пост 05-Сен-2014 23:15 (спустя 29 минут)

[Q] 

Обожаю фильмы из этой серии. Вот если-бы ещё скорости... А то скорость в 30KB/s при моих показателях... :
Ответ в моей подписи... au

_________________
[Профиль]  [ЛС] 

DESIER8

504

Пост 06-Сен-2014 22:30 (спустя 23 часа)

[Q] 

Автору респект!!! Люблю научные фильмы. Спасибо.
[Профиль]  [ЛС] 

TERMOS ®

Легенда

19860

Пост 08-Сен-2014 12:29 (спустя 1 день 13 часов)

[Q] 

DESIER8, да на здоровье! Только фильтруйте цифры, у переводчиков явно не хватает элементарных знаний. Как пример - температура межзвёздного газа: -400 С. bj И да:
Слегка поправил русские субтитры, у переводчиков некоторая проблема с переводом единиц измерения (градусы Фаренгейта в Цельсия, миль в километры, фунты в килограммы).

_________________
[Профиль]  [ЛС] 

Securityuser

Гроза морей

Пост 12-Ноя-2014 15:36 (спустя 2 месяца 4 дня)

[Q] 

Спасибо за раздачу!
[Профиль]  [ЛС] 

zvezda_2s

Флибустьер

Пост 07-Фев-2018 12:08 (спустя 3 года 2 месяца)

[Q] 

А остальные сезоны где?
Добавлено спустя 3 минуты 46 секунд:
Ага, вижу. А остальные серии сезона?
[Профиль]  [ЛС] 
Показать сообщения:    
Ответить на тему

Текущее время: Сегодня 19:56

Часовой пояс: GMT + 4



Вы не можете начинать темы
Вы не можете отвечать на сообщения
Вы не можете редактировать свои сообщения
Вы не можете удалять свои сообщения
Вы не можете голосовать в опросах
Вы не можете прикреплять файлы к сообщениям
Вы не можете скачивать файлы

Майнать ▼