Вселенная / The Universe / Сезон: 5 / Серии: 1-8 из 8 (Лаура Верклан / Laura Verklan, Колин Кэмпбелл / Colin Campbell, Тони Лонг / Tony Long) [2010 г., научно-популярный, BDRip, 720p] MVO + Original (Eng)+ Sub (Eng)

Ответить на тему
 
Автор
Сообщение

Пост 23-Мар-2014 13:00

[Q] 

TERMOS

Легенда

-Вселенная / The Universe
(5 сезон)
«Вековые тайны открываются»
-- Производство: США | Flight 33 Productions
Жанр: научно-популярный
Год выпуска: 2010 г.
Продолжительность: 8 х ~00:45:00
Перевод: Профессиональный (многоголосый, закадровый)
Оригинальный аудиопоток: английский
Режиссер: Лаура Верклан / Laura Verklan, Колин Кэмпбелл / Colin Campbell, Тони Лонг / Tony Long-В ролях: Эрик Томпсон, Алекс Филиппенко, Laura Danly, Нил Тайсон, Клиффорд Джонсон, Роб Рой Бритт, Amy Mainzer, Доктор Кевин Р. Грейзер, Greg Laughlin, Michelle Thaller-Описание: В этом сериале с помощью современной компьютерной графики и, основываясь на передовых исследованиях в области космоса, создатели фильма смогли воссоздать то, что происходит на других планетах, в других галактиках, вообразить какие формы жизни могли бы развиться в других атмосферах. Вы сможете увидеть космические бедствия, параллельные вселенные, скорость света и узнать многое другое о тайнах космоса.
- - -Качество видео: BDRip
Контейнер: MKV
Стандарт разрешения: 720p
Видео кодек: H.264/AVC
Аудио кодек: AC3, DTS
Видео: 1280x720, 23.976 fps, ~6000 kbps avg
Аудио: Russian: 48 kHz, AC3, 2.0 (L,R) ch, ~192 kbps
Аудио #2: English: 48 kHz, DTS, 3/2 (L,C,R,l,r) + LFE ch, ~1509 kbps
Cубтитры: английские
Episode 1: 7 Wonders of the Solar System / 7 чудес Солнечной системы
Episode 2: Mars: The New Evidence / Марс: новые свидетельства / Марс: Новые факты
Episode 3: Magnetic Storm / Магнитная буря
Episode 4: Time Travel / Путешествия во времени
Episode 5: Secrets of the Space Probes / Тайны космических зондов
Episode 6: Asteroid Attack / Атаки астероидов /Астероидная атака
Episode 7: Total Eclipse / Полное затмение
Episode 8: Dark Future of the Sun / Мрачное будущее Солнца
Код:
General
Complete name                    : T:\Uploads\Pirat.Ca\The Universe - Season 5 (2010) [BDRip.720p]\The.Universe.S05E01.2010.720p.BluRay.Rus.Eng.mkv
Format                           : Matroska
File size                        : 2.42 GiB
Duration                         : 44mn 3s
Overall bit rate                 : 7 859 Kbps
Movie name                       : Create by DeTorquemada for HDCLUB
Encoded date                     : UTC 2014-03-22 09:29:14
Writing application              : mkvmerge v6.6.0 ('The Edge Of The In Between') built on Dec  1 2013 17:55:00
Writing library                  : libebml v1.3.0 + libmatroska v1.4.1
Video
ID                               : 1
Format                           : AVC
Format/Info                      : Advanced Video Codec
Format profile                   : [email protected]
Format settings, CABAC           : Yes
Format settings, ReFrames        : 7 frames
Format settings, GOP             : M=4, N=6
Muxing mode                      : Container [email protected]
Codec ID                         : V_MPEG4/ISO/AVC
Duration                         : 44mn 3s
Bit rate                         : 6 001 Kbps
Width                            : 1 280 pixels
Height                           : 720 pixels
Display aspect ratio             : 16:9
Frame rate                       : 23.976 fps
Color space                      : YUV
Chroma subsampling               : 4:2:0
Bit depth                        : 8 bits
Scan type                        : Progressive
Bits/(Pixel*Frame)               : 0.272
Stream size                      : 1.85 GiB (76%)
Title                            : Episode 1: 7 Wonders of the Solar System / 7 чудес Солнечной системы (2010) - Release for HDCLUB
Writing library                  : x264 core 138 r2358 9e941d1
Encoding settings                : cabac=1 / ref=7 / deblock=1:-3:-3 / analyse=0x3:0x113 / me=umh / subme=10 / psy=1 / psy_rd=1.00:0.00 / mixed_ref=1 / me_range=48 / chroma_me=1 / trellis=2 / 8x8dct=1 / cqm=0 / deadzone=21,11 / fast_pskip=1 / chroma_qp_offset=-2 / threads=6 / lookahead_threads=1 / sliced_threads=0 / nr=0 / decimate=1 / interlaced=0 / bluray_compat=0 / constrained_intra=0 / bframes=3 / b_pyramid=2 / b_adapt=2 / b_bias=0 / direct=1 / weightb=1 / open_gop=0 / weightp=2 / keyint=240 / keyint_min=23 / scenecut=40 / intra_refresh=0 / rc_lookahead=65 / rc=crf / mbtree=0 / crf=17.0 / qcomp=0.60 / qpmin=0 / qpmax=69 / qpstep=4 / vbv_maxrate=50000 / vbv_bufsize=62500 / crf_max=0.0 / nal_hrd=none / ip_ratio=1.40 / pb_ratio=1.30 / aq=1:0.80
Language                         : English
Matrix coefficients              : BT.709-5, BT.1361, IEC 61966-2-4 709, SMPTE RP177
Audio #1
ID                               : 2
Format                           : AC-3
Format/Info                      : Audio Coding 3
Mode extension                   : CM (complete main)
Codec ID                         : A_AC3
Duration                         : 44mn 3s
Bit rate mode                    : Constant
Bit rate                         : 192 Kbps
Channel(s)                       : 2 channels
Channel positions                : Front: L R
Sampling rate                    : 48.0 KHz
Bit depth                        : 16 bits
Stream size                      : 60.5 MiB (2%)
Title                            : 48KHz/16-bit, AC3, 2.0 (L,R) ch, ~192 kbps - Многоголосый закадровый
Language                         : Russian
Audio #2
ID                               : 3
Format                           : DTS
Format/Info                      : Digital Theater Systems
Codec ID                         : A_DTS
Duration                         : 44mn 3s
Bit rate mode                    : Constant
Bit rate                         : 1 510 Kbps
Channel(s)                       : 2 channels
Channel positions                : Front: L R
Sampling rate                    : 48.0 KHz
Bit depth                        : 24 bits
Stream size                      : 476 MiB (19%)
Title                            : English: 48KHz/24-bit, DTS, 2.0 (L,R) ch, ~1509 kbps
Language                         : English
Text
ID                               : 4
Format                           : UTF-8
Codec ID                         : S_TEXT/UTF8
Codec ID/Info                    : UTF-8 Plain Text
Title                            : Subtitles/Captions
Language                         : English
Menu
00:00:00.000                     : en:
00:01:25.585                     : en:
00:12:27.621                     : en:
00:21:31.206                     : en:
00:29:34.564                     : en:
00:36:13.004                     : en:
00:44:03.849                     : en:
Download / Скачать

Хотите скачать бесплатно? Зарегистрируйтесь на сайте (ссылка на регистрацию). Pirat.ca - самый быстрый торрент трекер в рунете!

Как скачивать  ·   Что такое торрент  ·   Рейтинг и ограничения

ANTONIO173642

Шкипер

19

Пост 23-Мар-2014 13:20 (спустя 19 минут)

[Q] 

Раздача не идёт
[Профиль]  [ЛС] 

Securityuser

Гроза морей

Пост 13-Ноя-2014 08:39 (спустя 7 месяцев 20 дней)

[Q] 

Спасибо за раздачу! Автору респект!!!
[Профиль]  [ЛС] 

zvezda_2s

Флибустьер

Пост 07-Фев-2018 12:10 (спустя 3 года 2 месяца)

[Q] 

Ставлю на закачку, но вижу дано не было полного источника.
[Профиль]  [ЛС] 
Показать сообщения:    
Ответить на тему

Текущее время: Сегодня 06:13

Часовой пояс: GMT + 4



Вы не можете начинать темы
Вы не можете отвечать на сообщения
Вы не можете редактировать свои сообщения
Вы не можете удалять свои сообщения
Вы не можете голосовать в опросах
Вы не можете прикреплять файлы к сообщениям
Вы не можете скачивать файлы

Майнать ▼