Вселенная / The Universe / Сезон: 4 / Серии: 1-12 из 12 (Лаура Верклан, Колин Кэмпбелл, Тони Лонг / Laura Verklan, Colin Campbell, Tony Long) [2009 г., научно-популярный, BDRip, 720p] AVO (А. Дасевич) + DVO + Original (Eng)+ Sub (Rus, Eng)

Ответить на тему
 
Автор
Сообщение

Пост 17-Фев-2014 06:48

[Q] 

TERMOS

Легенда

-Вселенная / The Universe
(4 сезон)
«Вековые тайны открываются»
-- Производство: США
Жанр: научно-популярный
Год выпуска: 2009 г.
Продолжительность: 12 x ~00:45:00
Перевод: Профессиональный (одноголосый, закадровый)
Перевод 2: Профессиональный (двухголосый, закадровый)
Автор(ы) перевода: А.Дасевич
Оригинальный аудиопоток: английский
Режиссер: Лаура Верклан, Колин Кэмпбелл, Тони Лонг / Laura Verklan, Colin Campbell, Tony Long-В ролях: Pик Томпсон, Алекс Филиппенко, Лаура Данли, Клиффорд Джонсон, Нил Тайсон, Роб Рой Бритт, Эми Мейнзер, Доктор Кевин Р. Грейзер, Грег Лофлин, Мичио Каку-Описание: В этом сериале с помощью современной компьютерной графики и, основываясь на передовых исследованиях в области космоса, создатели фильмы смогли воссоздать то, что происходит на других планетах, в других галактиках, вообразить какие формы жизни могли бы развиться в других атмосферах. Вы сможете увидеть космические бедствия, параллельные вселенные, скорость света и узнать многое другое о тайнах космоса.
- - -Качество видео: BDRip
Контейнер: MKV
Стандарт разрешения: 720p
Видео кодек: H.264/AVC
Аудио кодек: AC3
Видео: 1280x720 at 23.976 fps, ~6000 Kbps avg
Аудио: (RUS) 48 kHz, AC3, 2/0 (L,R) ch, ~192.00 kbps avg |Двухголосый закадровый, 24 Техно|
Аудио #2: (RUS) 48 kHz, AC3, 2/0 (L,R) ch, ~640.00 kbps avg |Одноголосый закадровый, А.Дасевич| (*)
Аудио #3: (ENG) 48 kHz, AC3, 2/0 (L,R) ch, ~640.00 kbps avg
Cубтитры: русские(**), английские
(*) - Эпизоды 1-3,5.
(**) - Эпизоды 1-6.
01: Death Stars / Смертельные звезды
02: The Day the Moon Was Gone / День исчезновения Луны
03: It Fell from Space / Это упало из космоса
04: Biggest Blasts / Большущие взрывы
05: The Hunt for Ringed Planets / Охота на планеты с кольцами
06: 10 Ways to Destroy the Earth / 10 способов уничтожения Земли
07: The Search for Cosmic Clusters / Поиск космических скоплений
08: Space Wars / Космические войны
09: Liquid Universe / Жидкость во вселенной
10: Pulsars & Quasars / Пульсары и квазары
11: Science Fiction, Science Fact / Верь - не верь
12: Extreme Energy / Экстремальная энергия
Код:
General
Complete name                    : D:\Uploads\The Universe - Season 4 (2009)[BDRip.720p]\The.Universe.S04E01.Death.Stars.2009.720p.BluRay.Rus.Eng.mkv
Format                           : Matroska
File size                        : 2.44 GiB
Duration                         : 44mn 28s
Overall bit rate                 : 7 857 Kbps
Movie name                       : The Universe - S04E01 - Death Stars - Release for HDCLUB
Encoded date                     : UTC 2013-11-21 09:06:22
Writing application              : mkvmerge v3.4.0 ('Rapunzel') built on May 15 2010 09:38:20
Writing library                  : libebml v0.8.0 + libmatroska v0.9.0
Video
ID                               : 1
Format                           : AVC
Format/Info                      : Advanced Video Codec
Format profile                   : [email protected]
Format settings, CABAC           : Yes
Format settings, ReFrames        : 9 frames
Muxing mode                      : Container [email protected]
Codec ID                         : V_MPEG4/ISO/AVC
Duration                         : 44mn 28s
Bit rate                         : 6 229 Kbps
Width                            : 1 280 pixels
Height                           : 720 pixels
Display aspect ratio             : 16:9
Frame rate                       : 23.976 fps
Color space                      : YUV
Chroma subsampling               : 4:2:0
Bit depth                        : 8 bits
Scan type                        : Progressive
Bits/(Pixel*Frame)               : 0.282
Stream size                      : 1.94 GiB (79%)
Title                            : The Universe - S04E01 - Death Stars - Release for HDCLUB
Writing library                  : x264 core 89 r1471kGIT 1144615
Encoding settings                : cabac=1 / ref=9 / deblock=1:-3:-3 / analyse=0x3:0x113 / me=umh / subme=10 / psy=1 / psy_rd=1.15:0.10 / mixed_ref=1 / me_range=24 / chroma_me=1 / trellis=2 / 8x8dct=1 / cqm=0 / deadzone=21,11 / fast_pskip=0 / chroma_qp_offset=-3 / threads=3 / sliced_threads=0 / nr=0 / decimate=0 / interlaced=0 / constrained_intra=0 / bframes=5 / b_pyramid=2 / b_adapt=2 / b_bias=0 / direct=1 / wpredb=1 / wpredp=2 / keyint=250 / keyint_min=25 / scenecut=40 / intra_refresh=0 / rc=crf / mbtree=0 / crf=17.5 / qcomp=0.60 / qpmin=10 / qpmax=51 / qpstep=4 / ip_ratio=1.40 / pb_ratio=1.30 / aq=1:0.70 / pulldown=0
Language                         : English
Audio #1
ID                               : 2
Format                           : AC-3
Format/Info                      : Audio Coding 3
Mode extension                   : CM (complete main)
Codec ID                         : A_AC3
Duration                         : 44mn 28s
Bit rate mode                    : Constant
Bit rate                         : 192 Kbps
Channel(s)                       : 2 channels
Channel positions                : Front: L R
Sampling rate                    : 48.0 KHz
Bit depth                        : 16 bits
Stream size                      : 61.1 MiB (2%)
Title                            : AC3 2.0 @ 192 kbps - DVO, 24 Techno
Language                         : Russian
Audio #2
ID                               : 3
Format                           : AC-3
Format/Info                      : Audio Coding 3
Mode extension                   : CM (complete main)
Codec ID                         : A_AC3
Duration                         : 44mn 28s
Bit rate mode                    : Constant
Bit rate                         : 640 Kbps
Channel(s)                       : 2 channels
Channel positions                : Front: L R
Sampling rate                    : 48.0 KHz
Bit depth                        : 16 bits
Stream size                      : 204 MiB (8%)
Title                            : AC3 2.0 @ 640 kbps - VO, A.Dasevich
Language                         : Russian
Audio #3
ID                               : 4
Format                           : AC-3
Format/Info                      : Audio Coding 3
Mode extension                   : CM (complete main)
Codec ID                         : A_AC3
Duration                         : 44mn 28s
Bit rate mode                    : Constant
Bit rate                         : 640 Kbps
Channel(s)                       : 2 channels
Channel positions                : Front: L R
Sampling rate                    : 48.0 KHz
Bit depth                        : 16 bits
Stream size                      : 204 MiB (8%)
Title                            : AC3 2.0 @ 640 kbps
Language                         : English
Text #1
ID                               : 5
Format                           : UTF-8
Codec ID                         : S_TEXT/UTF8
Codec ID/Info                    : UTF-8 Plain Text
Language                         : Russian
Text #2
ID                               : 6
Format                           : UTF-8
Codec ID                         : S_TEXT/UTF8
Codec ID/Info                    : UTF-8 Plain Text
Language                         : English
Download / Скачать

Хотите скачать бесплатно? Зарегистрируйтесь на сайте (ссылка на регистрацию). Pirat.ca - самый быстрый торрент трекер в рунете!

Как скачивать  ·   Что такое торрент  ·   Рейтинг и ограничения

TERMOS ®

Легенда

19978

Пост 17-Фев-2014 07:01 (спустя 13 минут)

[Q] 

Качество перевода "24 Техно" ужасное, вроде "протоны и нейроны", но другого нет. bn
Проект с переводом + озвучкой у А. Дасевича закрыт. bu

_________________
[Профиль]  [ЛС] 

ElSkorpio

16

Пост 12-Май-2014 20:56 (спустя 2 месяца 23 дня)

[Q] 

глянем Спасибо!!!

_________________
[Профиль]  [ЛС] 

TERMOS ®

Легенда

19978

Пост 22-Май-2014 10:23 (спустя 9 дней)

[Q] 

ElSkorpio, ну и как?))

_________________
[Профиль]  [ЛС] 

Securityuser

Гроза морей

Пост 13-Ноя-2014 08:10 (спустя 5 месяцев 21 день)

[Q] 

Спасибо за раздачу! Автору респект!!!
[Профиль]  [ЛС] 

mitililn

Морской Волк

Пост 23-Фев-2017 23:52 (спустя 2 года 3 месяца)

[Q] 

Качество рулит. Почему наши так не умеют?
[Профиль]  [ЛС] 

zvezda_2s

Флибустьер

Пост 07-Фев-2018 12:12 (спустя 11 месяцев 11 дней)

[Q] 

Пробую качать. Получится?
[Профиль]  [ЛС] 
Показать сообщения:    
Ответить на тему

Текущее время: Сегодня 23:59

Часовой пояс: GMT + 4



Вы не можете начинать темы
Вы не можете отвечать на сообщения
Вы не можете редактировать свои сообщения
Вы не можете удалять свои сообщения
Вы не можете голосовать в опросах
Вы не можете прикреплять файлы к сообщениям
Вы не можете скачивать файлы

Майнать ▼