Прометей / Prometheus (Ридли Скотт / Ridley Scott) [2012 г., Фантастика, Триллер, BDRip, 1080p, OverUnder / Вертикальная стереопара] Dub + Original (Eng)

Ответить на тему
 
Автор
Сообщение

Пост 03-Ноя-2015 13:28

[Q] 

SeRoGa00

Корсар

-Прометей / Prometheus-- Производство: США, Великобритания (20th Century Fox, Dune Entertainment, Scott Free Productions, Brandywine Productions Ltd.)
Год выпуска: 2012 г.
Жанр: Фантастика, Триллер
Продолжительность: 02:03:45
Перевод: Профессиональный (полное дублирование)
Оригинальный аудиопоток: английский
Режиссер: Ридли Скотт / Ridley Scott-В ролях: Нуми Рапас, Майкл Фассбендер, Шарлиз Терон, Идрис Эльба, Гай Пирс, Логан Маршалл-Грин, Шон Харрис, Рейф Сполл, Иман Эллиотт, Бенедикт Вонг-Описание: В поисках сакрального знания группа ученых отправляется в самые темные и неизведанные чертоги вселенной. Именно там, в отдаленных мирах, находясь на пределе своих умственных и физических возможностей, им предстоит вступить в безжалостную схватку за будущее всего человечества…-
Качество видео: BDRip
Контейнер: MKV
Формат 3D: OverUnder / Вертикальная стереопара
Порядок ракурсов: левый ракурс первый
Стандарт разрешения: 1080p
Видео кодек: H.264
Аудио кодек: DTS
Видео: AVC / 23,976 fps / 1920х1600 / 11,3 Мбит/сек
Аудио: Русский / DTS / 48 KHz / 5.1 ch / 768 Кбит/сек
Аудио #2: Английский / AC3 / 48 KHz / 5.1 ch / 640 Кбит/сек
Cубтитры: отсутствуют
ВНИМАНИЕ ! На встроенных ТВ-плеерах работать не будет!!!
ТВ Samsung в названии которого есть надпись Ultra HD , и LG Ultra HD 800 серии(исключение: LG UB850v не воспроизводит),Xiaomi Mi TV 2 воспроизводят полные стереопары встроенными плеерами
Железные плееры на которых воспроизводятся полные стереопары:Popcorn C-200 , Dune HD Smart D1 , Dune HD DUO , Dune HD Smart H1 , Dune HD Smart B1 , Dune HD Max , Dune HD TV-303D , Dune HD Base 3D, Philips HMP7001, Aura HD
Общее
Уникальный идентификатор : 193478105558414565104519892358996248575 (0x918E8717DC30B564BC852FE5392947FF)
Полное имя : E:\закачки\Prometheus.Rip by SeRoGa00.mkv
Формат : Matroska
Версия формата : Version 2
Размер файла : 11,2 Гбайт
Продолжительность : 2 ч. 3 м.
Общий поток : 12,9 Мбит/сек
Дата кодирования : UTC 2015-11-03 06:07:14
Программа кодирования : mkvmerge v3.4.0 ('Rapunzel') сборка от May 15 2010 09:38:20
Библиотека кодирования : libebml v0.8.0 + libmatroska v0.9.0
Видео
Идентификатор : 1
Формат : AVC
Формат/Информация : Advanced Video Codec
Профиль формата : [email protected]
Параметр CABAC формата : Да
Параметр ReFrames формата : 4 кадра
Идентификатор кодека : V_MPEG4/ISO/AVC
Продолжительность : 2 ч. 3 м.
Битрейт : 11,3 Мбит/сек
Ширина : 1920 пикселей
Высота : 1600 пикселей
Соотношение сторон : 1,200
Частота кадров : 23,976 кадра/сек
Цветовое пространство : YUV
Субдискретизация насыщенности : 4:2:0
Битовая глубина : 8 бит
Тип развёртки : Прогрессивная
Бит/(Пиксели*Кадры) : 0.153
Размер потока : 9,77 Гбайт (87%)
Заголовок : Rip by SeRoGa00
Библиотека кодирования : x264 core 148 r2638 7599210
Настройки программы : cabac=1 / ref=4 / deblock=1:-3:-3 / analyse=0x3:0x113 / me=umh / subme=9 / psy=1 / psy_rd=1.00:0.15 / mixed_ref=1 / me_range=24 / chroma_me=1 / trellis=2 / 8x8dct=1 / cqm=0 / deadzone=21,11 / fast_pskip=1 / chroma_qp_offset=-3 / threads=9 / lookahead_threads=1 / sliced_threads=0 / nr=0 / decimate=1 / interlaced=0 / bluray_compat=0 / constrained_intra=0 / bframes=8 / b_pyramid=2 / b_adapt=2 / b_bias=0 / direct=3 / weightb=1 / open_gop=0 / weightp=2 / keyint=250 / keyint_min=23 / scenecut=40 / intra_refresh=0 / rc_lookahead=60 / rc=crf / mbtree=1 / crf=18.0 / qcomp=0.60 / qpmin=10 / qpmax=69 / qpstep=4 / vbv_maxrate=30000 / vbv_bufsize=30000 / crf_max=0.0 / nal_hrd=none / filler=0 / ip_ratio=1.40 / aq=1:1.00
Язык : English
Default : Нет
Forced : Нет
Аудио #1
Идентификатор : 2
Формат : DTS
Формат/Информация : Digital Theater Systems
Идентификатор кодека : A_DTS
Продолжительность : 2 ч. 3 м.
Вид битрейта : Постоянный
Битрейт : 768 Кбит/сек
Каналы : 6 каналов
Расположение каналов : Front: L C R, Side: L R, LFE
Частота : 48,0 КГц
Битовая глубина : 24 бит
Метод сжатия : С потерями
Размер потока : 668 Мбайт (6%)
Язык : Russian
Default : Да
Forced : Нет
Аудио #2
Идентификатор : 3
Формат : AC-3
Формат/Информация : Audio Coding 3
Расширение режима : CM (complete main)
Параметр Endianness формата : Big
Идентификатор кодека : A_AC3
Продолжительность : 2 ч. 3 м.
Вид битрейта : Постоянный
Битрейт : 640 Кбит/сек
Каналы : 6 каналов
Расположение каналов : Front: L C R, Side: L R, LFE
Частота : 48,0 КГц
Битовая глубина : 16 бит
Метод сжатия : С потерями
Размер потока : 567 Мбайт (5%)
Язык : English
Default : Нет
Forced : Нет
Download / Скачать

Хотите скачать бесплатно? Зарегистрируйтесь на сайте (ссылка на регистрацию). Pirat.ca - самый быстрый торрент трекер в рунете!

Как скачивать  ·   Что такое торрент  ·   Рейтинг и ограничения

Пост 03-Ноя-2015 18:04 (спустя 4 часа)

Топик был перенесен из форума 3D Контент (Трюм) в форум 3D Кинофильмы
erchine
 

medved218

Корсар

Пост 03-Ноя-2015 19:06 (спустя 5 часов)

[Q] 

а можно как-то в сой запись смотреть? или что-то типо "Закрой пол экрана, будет удобнее" ?)
[Профиль]  [ЛС] 

kaktus

Корсар

Пост 03-Ноя-2015 19:19 (спустя 13 минут)

[Q] 

загугли что такое Вертикальная стереопара 3Д. и поймешь, что пургу несешь
[Профиль]  [ЛС] 

Voldemartop

Легенда

1583

Пост 03-Ноя-2015 23:39 (спустя 4 часа)

[Q] 

Благо Дарю SeRoGa00!!!
Автору респект!!! Лови бочку
А кинокартина эта, как предзнаменование начала фильма "Чужой" (Alien, 1979).

_________________


МОИ РАЗДАЧИ
[Профиль]  [ЛС] 

cssergey

Легенда

Пост 04-Ноя-2015 10:02 (спустя 10 часов)

[Q] 

Супер! Раздающему респект! .
[Профиль]  [ЛС] 

foxx77

Лоцман

Пост 24-Мар-2016 18:51 (спустя 4 месяца 20 дней)

[Q] 

телек не читает формат
[Профиль]  [ЛС] 

KHETAG

Морской Волк

Пост 09-Фев-2018 06:07 (спустя 1 год 10 месяцев)

[Q] 

Затестим, спасибо автору! Автору респект!!!
[Профиль]  [ЛС] 
Показать сообщения:    
Ответить на тему

Текущее время: Сегодня 14:54

Часовой пояс: GMT + 4



Вы не можете начинать темы
Вы не можете отвечать на сообщения
Вы не можете редактировать свои сообщения
Вы не можете удалять свои сообщения
Вы не можете голосовать в опросах
Вы не можете прикреплять файлы к сообщениям
Вы не можете скачивать файлы

Майнать ▼