В сердце моря / In the Heart of the Sea 3D (Рон Ховард / Ron Howard) [2015 г., биография, триллер, боевик, приключения, BDRip, 1080p] [Вертикальная анаморфная стереопара / Half OverUnder] Dub [iTunes] + Original (Eng) + Sub

Ответить на тему
 
Автор
Сообщение

Пост 20-Мар-2016 18:20

[Q] 

Mollchun

Корсар

-В сердце моря / In the Heart of the Sea 3D-- Производство: США
Год выпуска: 2015 г.
Жанр: биография, триллер, боевик, приключения
Продолжительность: 02:01:43
Мировая премьера: 2 декабря 2015
Российская премьера: 3 декабря 2015
Перевод: Профессиональный (полное дублирование) [Русский, Дубляж - iTunes]
Перевод 2: Профессиональный (полное дублирование) [Украинский, Дубляж - iTunes]
Оригинальный аудиопоток: английский
Режиссер: Рон Ховард / Ron Howard-В ролях: Крис Хемсворт, Бенджамин Уокер, Киллиан Мёрфи, Брендан Глисон, Бен Уишоу, Мишель Фэйрли, Том Холланд, Пол Андерсон, Фрэнк Диллэйн, Джозеф Моул-Описание: В 1819 году американский корабль «Эссекс» с командой из двух десятков человек на борту отправился из порта в штате Массачусетс на китобойный промысел. Осенью 1820-го успешная на протяжении полутора лет охота была прервана атакой гигантского кашалота на судно, в результате чего морякам пришлось пересесть в шлюпки. В течение трех с лишним месяцев они боролись за выживание посреди океана…-
Качество видео: BDRip
Формат 3D: Вертикальная анаморфная стереопара / Half OverUnder
Контейнер: MKV
Стандарт разрешения: 1080p
Видео кодек: AVC
Аудио кодек: AC3
Видео: AVC / 23,976 fps / 1920х1080p / 17.7 Mbps
Аудио: 384 Кбит/сек, 6 каналов, 48,0 КГц, 31,250 кадров/сек (1536 spf)
Аудио #2: 192 Кбит/сек, 2 канала, 48,0 КГц, 31,250 кадров/сек (1536 spf)
Аудио #3: 640 Кбит/сек, 6 каналов, 48,0 КГц, 31,250 кадров/сек (1536 spf)
Cубтитры: русские
Формат субтитров: softsub (SRT)
Доп. информация о субтитрах: 1. UTF-8, Форсированные (iTunes, edited), Russian; 2. UTF-8 Plain Text, Полные (iTunes), Russian; 3. UTF-8 Plain Text, Форсированные (iTunes); 4. UTF-8 Plain Text, Full (BD 3D), English
Экипаж «Эссекса», пострадавшего при нападении кашалота, пытается достичь одного из островов архипелага Хуан-Фернандес. Свыше ста лет до описываемых событий этот же самый остров служил прибежищем некоему Александру Селькирку из Шотландии, который провёл там несколько лет. Его историю Даниель Дефо описал в романе «Робинзон Крузо».
Киллиан Мёрфи, Шарлотта Райли и Пол Андерсон вместе снимались в британской криминальной драме «Острые козырьки».
Выход фильма на экраны изначально планировался на март 2015 года. Премьера была перенесена на декабрь того же года, так как фильм был номинирован на «Оскар».
В основу фильма положены события, в действительности произошедшие с командой китобойного судна «Эссекс», которое затонуло после нападения на него кашалота в южной части Тихого океана в 1820 году. Этот случай вдохновил Германа Мелвилла на создание романа «Моби Дик».
Как сообщил Крис Хемсворт, занятые в съёмках актёры сидели на диете, употребляя не более 500-600 калорий в день, чтобы похудеть и выглядеть правдоподобнее в сценах, где экипаж судна голодает.
Это уже шестой фильм, снятый Роном Ховардом на основании реальных событий. До этого Ховард снял «Аполлон 13», «Игры разума», «Нокдаун», «Фрост против Никсона» и «Гонка».
Некоторые сцены фильма снимались на Канарских островах. Там же свою киноверсию романа Мелвилла снимал и Джон Хьюстон.
Сам Герман Мелвилл никогда не плавал на «Эссексе». Он был матросом на китобойном судне «Акушнет».
Это уже второй фильм, на съёмках которого встретились режиссёр Рон Ховард и актёр Крис Хемсворт. Первым был фильм «Гонка» (2013).
В фильме снимались двое актёров из «Кинематографической вселенной «Марвел» — Крис Хемсворт, известный исполнением роли Тора, и Том Холланд, снявшийся в роли Человека-паука.
В 2000 году Барри Левинсон приступил к съёмкам кинематографической версии романа. Распространением должна была заниматься компания «Мирамакс».
До Бенджамина Уокера на роль капитана рассматривались кандидатуры Бенедикта Камбербэтча, Тома Хиддлстона и Генри Кавилла.
Мишель Фэйрли, Джозеф Моул, Дональд Самптер и Джейми Сивес снимались в сериале «Игра престолов» в ролях Кэтлин Старк, Бенджена Старка, мейстера Лювина и Джори Касселя.
Это уже второй фильм, в котором Брендан Глисон и Шарлотта Райли снялись вместе. Первым был фантастический боевик «Грань будущего» (2014)
Общее
Уникальный идентификатор : 177379213556725798081680940468444441262 (0x8571FE6F947AC1A48E8E44699135AAAE)
Полное имя : F:\Временные фильмы\InTheHeartOfTheSea(2015)3D-halfOU(Ash61)iTunes\InTheHeartOfTheSea(2015)3D-halfOU(Ash61)iTunes.mkv
Формат : Matroska
Версия формата : Version 2
Размер файла : 16,4 Гбайт
Продолжительность : 2 ч. 1 м.
Общий поток : 19,3 Мбит/сек
Название фильма : В сердце моря / In the Heart of the Sea (2015) в 3Д
Дата кодирования : UTC 2016-03-03 20:41:23
Программа кодирования : mkvmerge v5.8.0 ('No Sleep / Pillow') built on Sep 2 2012 15:37:04
Библиотека кодирования : libebml v1.2.3 + libmatroska v1.3.0
Видео
Идентификатор : 1
Формат : AVC
Формат/Информация : Advanced Video Codec
Профиль формата : [email protected]
Параметр CABAC формата : Да
Параметр ReFrames формата : 4 кадра
Идентификатор кодека : V_MPEG4/ISO/AVC
Продолжительность : 2 ч. 1 м.
Битрейт : 17,7 Мбит/сек
Ширина : 1920 пикселей
Высота : 1080 пикселей
Соотношение сторон : 16:9
Режим частоты кадров : Постоянный
Частота кадров : 23,976 (24000/1001) кадра/сек
Цветовое пространство : YUV
Субдискретизация насыщенности : 4:2:0
Битовая глубина : 8 бит
Тип развёртки : Прогрессивная
Бит/(Пиксели*Кадры) : 0.355
Размер потока : 15,0 Гбайт (92%)
Заголовок : BDRip by Ash61
Библиотека кодирования : x264 core 146 r2538 121396c
Настройки программы : cabac=1 / ref=4 / deblock=1:-3:-3 / analyse=0x3:0x113 / me=umh / subme=10 / psy=1 / psy_rd=1.00:0.00 / mixed_ref=1 / me_range=32 / chroma_me=1 / trellis=2 / 8x8dct=1 / cqm=0 / deadzone=21,11 / fast_pskip=1 / chroma_qp_offset=-2 / threads=12 / lookahead_threads=3 / sliced_threads=0 / nr=0 / decimate=1 / interlaced=0 / bluray_compat=0 / constrained_intra=0 / bframes=10 / b_pyramid=2 / b_adapt=2 / b_bias=0 / direct=3 / weightb=1 / open_gop=0 / weightp=2 / keyint=250 / keyint_min=23 / scenecut=40 / intra_refresh=0 / rc_lookahead=60 / rc=crf / mbtree=1 / crf=16.0 / qcomp=0.70 / qpmin=0 / qpmax=69 / qpstep=4 / vbv_maxrate=40000 / vbv_bufsize=30000 / crf_max=0.0 / nal_hrd=none / filler=0 / frame-packing=4 / ip_ratio=1.40 / aq=1:0.70
Язык : English
Default : Да
Forced : Нет
Аудио #1
Идентификатор : 2
Формат : AC-3
Формат/Информация : Audio Coding 3
Расширение режима : CM (complete main)
Параметр Endianness формата : Big
Идентификатор кодека : A_AC3
Продолжительность : 2 ч. 1 м.
Вид битрейта : Постоянный
Битрейт : 384 Кбит/сек
Каналы : 6 каналов
Расположение каналов : Front: L C R, Side: L R, LFE
Частота : 48,0 КГц
Частота кадров : 31,250 кадров/сек (1536 spf)
Метод сжатия : С потерями
Размер потока : 334 Мбайт (2%)
Заголовок : Дубляж - iTunes
Язык : Russian
Default : Да
Forced : Нет
Аудио #2
Идентификатор : 3
Формат : AC-3
Формат/Информация : Audio Coding 3
Расширение режима : CM (complete main)
Параметр Endianness формата : Big
Идентификатор кодека : A_AC3
Продолжительность : 2 ч. 1 м.
Вид битрейта : Постоянный
Битрейт : 192 Кбит/сек
Каналы : 2 канала
Расположение каналов : Front: L R
Частота : 48,0 КГц
Частота кадров : 31,250 кадров/сек (1536 spf)
Метод сжатия : С потерями
Размер потока : 167 Мбайт (1%)
Заголовок : Дубляж - iTunes
Язык : Ukrainian
Default : Нет
Forced : Нет
Аудио #3
Идентификатор : 4
Формат : AC-3
Формат/Информация : Audio Coding 3
Расширение режима : CM (complete main)
Параметр Endianness формата : Big
Идентификатор кодека : A_AC3
Продолжительность : 2 ч. 1 м.
Вид битрейта : Постоянный
Битрейт : 640 Кбит/сек
Каналы : 6 каналов
Расположение каналов : Front: L C R, Side: L R, LFE
Частота :
Частота кадров : 31,250 кадров/сек (1536 spf)
Метод сжатия : С потерями
Размер потока : 557 Мбайт (3%)
Заголовок : Original
Язык : English
Default : Нет
Forced : Нет
Текст #1
Идентификатор : 5
Формат : UTF-8
Идентификатор кодека : S_TEXT/UTF8
Идентификатор кодека/Информация : UTF-8 Plain Text
Заголовок : Форсированные (iTunes, edited)
Язык : Russian
Default : Да
Forced : Нет
Текст #2
Идентификатор : 6
Формат : UTF-8
Идентификатор кодека : S_TEXT/UTF8
Идентификатор кодека/Информация : UTF-8 Plain Text
Заголовок : Полные (iTunes)
Язык : Russian
Default : Нет
Forced : Нет
Текст #3
Идентификатор : 7
Формат : UTF-8
Идентификатор кодека : S_TEXT/UTF8
Идентификатор кодека/Информация : UTF-8 Plain Text
Заголовок : Форсированные (iTunes)
Язык : Ukrainian
Default : Нет
Forced : Нет
Текст #4
Идентификатор : 8
Формат : UTF-8
Идентификатор кодека : S_TEXT/UTF8
Идентификатор кодека/Информация : UTF-8 Plain Text
Заголовок : Full (BD 3D)
Язык : English
Default : Нет
Forced : Нет
Текст #5
Идентификатор : 9
Формат : UTF-8
Идентификатор кодека : S_TEXT/UTF8
Идентификатор кодека/Информация : UTF-8 Plain Text
Заголовок : SDH (BD 3D)
Язык : English
Default : Нет
Forced : Нет
Меню
00:00:00.000 : :1
00:12:07.518 : :2
00:21:19.737 : :3
00:33:31.968 : :4
00:42:37.013 : :5
00:51:32.715 : :6
01:06:45.835 : :7
01:13:14.015 : :8
01:23:23.290 : :9
01:33:47.872 : :10
01:43:22.029 : :11
01:53:00.774 : :12
Download / Скачать

Хотите скачать бесплатно? Зарегистрируйтесь на сайте (ссылка на регистрацию). Pirat.ca - самый быстрый торрент трекер в рунете!

Как скачивать  ·   Что такое торрент  ·   Рейтинг и ограничения

vinylovi4

Гроза морей

Пост 20-Мар-2016 21:23 (спустя 3 часа)

[Q] 

ну а чего не скачать то...)))
спасибо и бочка)
[Профиль]  [ЛС] 

Пост 21-Мар-2016 10:04 (спустя 12 часов)

Топик был перенесен из форума Зарубежное Кино (Трюм) в форум 3D Кинофильмы
Андря
 

Oksika

Флибустьер

Пост 22-Мар-2016 15:33 (спустя 1 день 18 часов)

[Q] 

Эффекты должны быть интересными. Посмотрим. Спасибо!!!
[Профиль]  [ЛС] 

Oksika

Флибустьер

Пост 23-Мар-2016 18:30 (спустя 1 день 2 часа)

[Q] 

Третий день застряло на 11% - ау, раздающий. Эй, вернитесь на раздачу...
[Профиль]  [ЛС] 

Sector_X

311

Пост 28-Ноя-2016 19:34 (спустя 8 месяцев 5 дней)

[Q] 

Спасибо!!! Мне понравилось

_________________

[Профиль]  [ЛС] 

Andik-nn

Корсар

Пост 09-Дек-2016 15:11 (спустя 10 дней)

[Q] 

Заценим Спасибо!!!
[Профиль]  [ЛС] 

KHETAG

Морской Волк

Пост 09-Фев-2018 06:13 (спустя 1 год 1 месяц)

[Q] 

Затестим!!! Пиратка рулит!
[Профиль]  [ЛС] 
Показать сообщения:    
Ответить на тему

Текущее время: Сегодня 01:01

Часовой пояс: GMT + 4



Вы не можете начинать темы
Вы не можете отвечать на сообщения
Вы не можете редактировать свои сообщения
Вы не можете удалять свои сообщения
Вы не можете голосовать в опросах
Вы не можете прикреплять файлы к сообщениям
Вы не можете скачивать файлы

Майнать ▼