Президент Линкольн: Охотник на вампиров / Abraham Lincoln: Vampire Hunter (Тимур Бекмамбетов / Timur Bekmambetov) [2012 г., ужасы, фэнтези, боевик, BDRip, 1080p] [3D: Half OverUnder] 2хDub (BD 3D RUS, BD 3D UKR) + Original (Eng) + Sub (Rus, Ukr, Eng)

Ответить на тему
 
Автор
Сообщение

Пост 21-Янв-2017 23:15

[Q] 

somik

-Президент Линкольн: Охотник на вампиров / Abraham Lincoln: Vampire Hunter-- Производство: США
Год выпуска: 2012 г.
Жанр: ужасы, фэнтези, боевик
Продолжительность: 01:45:01
Мировая премьера: 18 июня 2012
Российская премьера: 21 июня 2012, «Двадцатый Век Фокс СНГ»
Дата выхода DVD: 18 октября 2012, «Двадцатый Век Фокс СНГ»
Дата выхода Blu-Ray: 18 октября 2012, «Двадцатый Век Фокс СНГ»
Перевод 1: Профессиональный (полное дублирование) [BD 3D RUS]
Перевод 2: Профессиональный (полное дублирование) [BD 3D UKR]
Оригинальный аудиопоток: английский
Режиссер: Тимур Бекмамбетов / Timur Bekmambetov-В ролях: Авраам Линкольн - Бенджамин Уокер (Иван Жарков), Генри Стёрджес - Доминик Купер, Уилл Джонсон - Энтони Маки (Пётр Иващенко), Мэри Тодд Линкольн - Мэри Элизабет Уинстэд (Рамиля Искандер), Адам - Руфус Сьюэлл (Виктор Вержбицкий), Джек Бартс - Мартон Чокаш, Джошуа Спид - Джимми Симпсон (Илья Хвостиков), Томас Линкольн - Джозеф Моул (Даниил Эльдаров), Нэнси Линкольн - Робин МакЛиви, Вэдома - Эрин Уоссон, Джефферсон Дэвис - Джон Ротмен-Описание: Сюжет фильма раскрывает тайную жизнь Величайшего Президента Америки Авраама Линкольна — любящего мужа и отца днем и беспощадного убийцу вампиров ночью. Армия кровопийц, которым он бросил вызов, растет с каждым днем. Сможет ли президент великой страны противостоять полчищам вампиров и спасти свою семью и народ от неминуемой гибели?..-
Качество видео: BDRip
Формат 3D: Half OverUnder / Вертикальная анаморфная стереопара
Контейнер: MKV
Стандарт разрешения: 1080p
Видео кодек: MPEG4 AVC
Аудио кодек: AC3
Видео: AVC / 23,976 fps / 1920х1080p / 13.6 Mbps
Аудио #1: AC3 / 48 KHz / 5.1 ch / 640 Kbps
Аудио #2: AC3 / 48 KHz / 5.1 ch / 448 Kbps
Аудио #3: AC3 / 48 KHz / 5.1 ch / 640 Kbps
Cубтитры: Русские форс. (вкл. по умолчанию), полные, комментарии, Украинские форс., полные, English Full, SDH, Comments
Формат субтитров: softsub (SRT)
Доп. информация о субтитрах: включаемые
Фильм снят по мотивам мэшап-романа Сета Грэма-Смита «Авраам Линкольн: Охотник на вампиров» (Abraham Lincoln, Vampire Hunter, 2010).
Первая премьера фильма прошла на авианосце «Авраам Линкольн».
Велись переговоры с Трентом Резнором об эпизодической роли в фильме, но новость просочилась, прежде чем он принял окончательное решение, и Резнор отказался от участия в проекте, так как был потерян элемент неожиданности его появления в нем.
Том Харди, утвержденный на роль Линкольна, был вынужден отказаться из-за несогласованности в расписании съемок с фильмом «Темный рыцарь: Возрождение легенды» (2012). После него Эрик Бана, Тимоти Олифант, Эдриан Броуди, Джош Лукас, Джеймс Д`Арси и Оливер Джексон-Коэн рассматривались на эту роль, но в итоге она досталась Бенджамину Уокеру.
Хоакин Феникс был первым претендентом на роль Генри Стерджесса, но отказался.
Робин МакЛиви должна была играть жену Линкольна — Мэри Тодд, но в итоге была определена на роль его матери Нэнси.
Сэт Грэм-Смит написавший и сценарий, и сам роман, по которому снят фильм, рассказал «Time Magazine», что (в отличие от предположений большинства) человек в баре в конце фильма (который набирает сообщение, прежде чем [как мы предполагаем] Генри нанимает его, чтобы быть следующим охотником на вампиров) не Джордж Буш, Барак Обама, или какой-либо другой президент. Грэм-Смит сказал: «В этом человеке не подразумевается кто-то особенный, это было сделано для того, чтобы разобраться с предшествующей сценой Генри и Эйба». Он так же сказал, что этого человека (печатающего сообщение) сыграл сам.
Правда остаётся правдой, ложь становиться историей.
Часто именно таких слов не хватает в мистических фильмах, для того чтобы показать границу между этими двумя мирами.
Жизнь Линкольна — это классическая история величайшего человека, история его любви и борьбы, полная тайн, секретов и подвигов: днем он президент великой страны, а ночью — бесстрашный охотник на вампиров.
Многие задаются вопросом: как можно смешивать реального президента США с вампирской мистикой? А почему, собственно говоря, нельзя смешивать правду и ложь, если эти два противопоставленных друг другу качества хорошо гармонируют в данный картине.
Ну а если брать фильм в общем, и подумать на какой из фильмов он больше всего похож, то это — Ван Хельсинг.
Казалось бы, что сюжетные линии, связанные с вампирами, окончательно потеряли интерес среди народа. Это не так. Главное, заинтересовать зрителя, сделав это не на подобии предыдущих бестселлеров, а придумать что-то новое, что-то захватывающее.
Могу смело сказать, что у Тимура Бекмамбетова это хорошо получилось.
8 из 10
Общее
Уникальный идентификатор : 254947979121710782004594878448191079214 (0xBFCD31D981ED3C398063828F9547032E)
Полное имя : F:\Президент Линкольн Охотник на вампиров Abraham Lincoln Vampire Hunter (2012) BDRip 1080p 3D-Video D\AbrahamLincoln.VampireHunter.2012.BDRip.1080p.3D.halfOU.[pirat.ca].mkv
Формат : Matroska
Версия формата : Version 2
Размер файла : 11,5 Гбайт
Продолжительность : 1 ч. 45 м.
Общий поток : 15,7 Мбит/сек
Дата кодирования : UTC 2017-01-21 18:00:47
Программа кодирования : mkvmerge v5.3.0 ('I could have danced') built on Feb 9 2012 10:38:07
Библиотека кодирования : libebml v1.2.3 + libmatroska v1.3.0
Видео
Идентификатор : 1
Формат : AVC
Формат/Информация : Advanced Video Codec
Профиль формата : [email protected]
Параметр CABAC формата : Да
Параметр ReFrames формата : 4 кадра
Идентификатор кодека : V_MPEG4/ISO/AVC
Продолжительность : 1 ч. 45 м.
Битрейт : 13,6 Мбит/сек
Ширина : 1920 пикселей
Высота : 1080 пикселей
Соотношение сторон : 16:9
Режим частоты кадров : Постоянный
Частота кадров : 23,976 (24000/1001) кадра/сек
Цветовое пространство : YUV
Субдискретизация насыщенности : 4:2:0
Битовая глубина : 8 бит
Тип развёртки : Прогрессивная
Бит/(Пиксели*Кадры) : 0.274
Размер потока : 10,0 Гбайт (87%)
Библиотека кодирования : x264 core 116 r2074 2641b9e
Настройки программы : cabac=1 / ref=4 / deblock=1:-3:-3 / analyse=0x3:0x113 / me=umh / subme=9 / psy=1 / psy_rd=1.00:0.15 / mixed_ref=1 / me_range=16 / chroma_me=1 / trellis=2 / 8x8dct=1 / cqm=0 / deadzone=21,11 / fast_pskip=1 / chroma_qp_offset=-3 / threads=12 / sliced_threads=0 / nr=0 / decimate=1 / interlaced=0 / bluray_compat=0 / constrained_intra=0 / bframes=6 / b_pyramid=2 / b_adapt=2 / b_bias=0 / direct=3 / weightb=1 / open_gop=0 / weightp=2 / keyint=250 / keyint_min=23 / scenecut=40 / intra_refresh=0 / rc_lookahead=60 / rc=crf / mbtree=1 / crf=16.0 / qcomp=0.60 / qpmin=10 / qpmax=51 / qpstep=4 / vbv_maxrate=40000 / vbv_bufsize=40000 / crf_max=0.0 / nal_hrd=none / frame-packing=4 / ip_ratio=1.40 / aq=1:0.70
Язык : English
Default : Да
Forced : Нет
Аудио #1
Идентификатор : 2
Формат : AC-3
Формат/Информация : Audio Coding 3
Расширение режима : CM (complete main)
Параметр Endianness формата : Big
Идентификатор кодека : A_AC3
Продолжительность : 1 ч. 45 м.
Вид битрейта : Постоянный
Битрейт : 640 Кбит/сек
Каналы : 6 каналов
Расположение каналов : Front: L C R, Side: L R, LFE
Частота : 48,0 КГц
Частота кадров : 31,250 кадров/сек (1536 spf)
Метод сжатия : С потерями
Размер потока : 481 Мбайт (4%)
Заголовок : Дубляж - BD 3D
Язык : Russian
Default : Да
Forced : Нет
Аудио #2
Идентификатор : 3
Формат : AC-3
Формат/Информация : Audio Coding 3
Расширение режима : CM (complete main)
Параметр Endianness формата : Big
Идентификатор кодека : A_AC3
Продолжительность : 1 ч. 45 м.
Вид битрейта : Постоянный
Битрейт : 448 Кбит/сек
Каналы : 6 каналов
Расположение каналов : Front: L C R, Side: L R, LFE
Частота : 48,0 КГц
Частота кадров : 31,250 кадров/сек (1536 spf)
Метод сжатия : С потерями
Размер потока : 336 Мбайт (3%)
Заголовок : Дубляж - BD 3D
Язык : Ukrainian
Default : Нет
Forced : Нет
Аудио #3
Идентификатор : 4
Формат : AC-3
Формат/Информация : Audio Coding 3
Расширение режима : CM (complete main)
Параметр Endianness формата : Big
Идентификатор кодека : A_AC3
Продолжительность : 1 ч. 45 м.
Вид битрейта : Постоянный
Битрейт : 640 Кбит/сек
Каналы : 6 каналов
Расположение каналов : Front: L C R, Side: L R, LFE
Частота : 48,0 КГц
Частота кадров : 31,250 кадров/сек (1536 spf)
Метод сжатия : С потерями
Размер потока : 481 Мбайт (4%)
Заголовок : Original
Язык : English
Default : Нет
Forced : Нет
Текст #1
Идентификатор : 5
Формат : UTF-8
Идентификатор кодека : S_TEXT/UTF8
Идентификатор кодека/Информация : UTF-8 Plain Text
Заголовок : Форсированные
Язык : Russian
Default : Да
Forced : Нет
Текст #2
Идентификатор : 6
Формат : UTF-8
Идентификатор кодека : S_TEXT/UTF8
Идентификатор кодека/Информация : UTF-8 Plain Text
Заголовок : Полные
Язык : Russian
Default : Нет
Forced : Нет
Текст #3
Идентификатор : 7
Формат : UTF-8
Идентификатор кодека : S_TEXT/UTF8
Идентификатор кодека/Информация : UTF-8 Plain Text
Заголовок : Комментарии
Язык : Russian
Default : Нет
Forced : Нет
Текст #4
Идентификатор : 8
Формат : UTF-8
Идентификатор кодека : S_TEXT/UTF8
Идентификатор кодека/Информация : UTF-8 Plain Text
Заголовок : Форсированные
Язык : Ukrainian
Default : Нет
Forced : Нет
Текст #5
Идентификатор : 9
Формат : UTF-8
Идентификатор кодека : S_TEXT/UTF8
Идентификатор кодека/Информация : UTF-8 Plain Text
Заголовок : Полные
Язык : Ukrainian
Default : Нет
Forced : Нет
Текст #6
Идентификатор : 10
Формат : UTF-8
Идентификатор кодека : S_TEXT/UTF8
Идентификатор кодека/Информация : UTF-8 Plain Text
Заголовок : Full
Язык : English
Default : Нет
Forced : Нет
Текст #7
Идентификатор : 11
Формат : UTF-8
Идентификатор кодека : S_TEXT/UTF8
Идентификатор кодека/Информация : UTF-8 Plain Text
Заголовок : SDH
Язык : English
Default : Нет
Forced : Нет
Текст #8
Идентификатор : 12
Формат : UTF-8
Идентификатор кодека : S_TEXT/UTF8
Идентификатор кодека/Информация : UTF-8 Plain Text
Заголовок : Comments
Язык : English
Default : Нет
Forced : Нет
Меню
00:00:00.000 : :1
00:03:48.478 : :2
00:06:52.579 : :3
00:11:06.457 : :4
00:15:10.535 : :5
00:20:07.790 : :6
00:26:46.355 : :7
00:29:22.135 : :8
00:34:13.009 : :9
00:39:04.884 : :10
00:42:42.810 : :11
00:47:25.468 : :12
00:52:50.918 : :13
01:00:39.302 : :14
01:05:16.621 : :15
01:10:33.604 : :16
01:13:21.939 : :17
01:16:41.555 : :18
01:18:46.972 : :19
01:22:41.373 : :20
01:25:28.123 : :21
01:29:00.835 : :22
01:32:23.496 : :23
01:37:55.119 : :24
Download / Скачать

Хотите скачать бесплатно? Зарегистрируйтесь на сайте (ссылка на регистрацию). Pirat.ca - самый быстрый торрент трекер в рунете!

Как скачивать  ·   Что такое торрент  ·   Рейтинг и ограничения

Пост 23-Янв-2017 17:28 (спустя 1 день 18 часов)

Топик был перенесен из форума 3D Контент (Трюм) в форум 3D Кинофильмы
erchine
 

pvm

Флибустьер

Пост 23-Янв-2017 19:52 (спустя 1 день 20 часов)

[Q] 

Как фильм в плане 3D?
[Профиль]  [ЛС] 

KHETAG

Морской Волк

Пост 09-Фев-2018 06:18 (спустя 1 год)

[Q] 

Хороший фильм! рекомендую Супер! Лови бочку
[Профиль]  [ЛС] 
Показать сообщения:    
Ответить на тему

Текущее время: Сегодня 03:43

Часовой пояс: GMT + 4



Вы не можете начинать темы
Вы не можете отвечать на сообщения
Вы не можете редактировать свои сообщения
Вы не можете удалять свои сообщения
Вы не можете голосовать в опросах
Вы не можете прикреплять файлы к сообщениям
Вы не можете скачивать файлы

Майнать ▼