Пираты Карибского моря: На странных берегах 3D / Pirates of the Caribbean: On Stranger Tides 3D (Роб Маршалл / Rob Marshall) [2011 г., фэнтези, боевик, комедия, приключения, BDRip] [Вертикальная анаморфная стереопара / Half OverUnder] Dub (Rus, Ukr)

Ответить на тему
 
Автор
Сообщение

Пост 09-Янв-2012 12:29

[Q] 

dimkoba

Пираты Карибского моря: На странных берегах 3D-Pirates of the Caribbean: On Stranger Tides 3D- Год выпуска: 2011
Мировая премьера: 7 мая 2011
Российская премьера: 18 мая 2011, «WDSSPR»
Дата выхода DVD: 6 сентября 2011, «Уолт Дисней Компани СНГ»
Дата выхода Blu-Ray: 6 сентября 2011, «Уолт Дисней Компани СНГ»
Производство: США
Жанр: фэнтези, боевик, комедия, приключения
Продолжительность: 02:16:23
Перевод: Профессиональный (полное дублирование) русский, украинский
Оригинальный аудиопоток: английский
Субтитры: отсутствуют
Режиссер: Роб Маршалл / Rob Marshall
В ролях
Джонни Депп, Пенелопа Крус, Джеффри Раш, Иэн МакШейн, Кевин МакНэлли, Стивен Грэм, Сэм Клафлин, Астрид Берже-Фрисби, Кит Ричардс, Ричард Гриффитс
Описание
В новой истории о поисках истины, предательстве, вечной молодости и смертельной опасности капитану Джеку Воробью предстоит столкнуться с женщиной из своего прошлого Анжеликой. До самого конца не будет понятно, связывает ли их настоящая любовь, или же Анжелика искусно притворяется, чтобы вместе с Джеком добраться до таинственного источника вечной молодости.
Она силой принуждает капитана Джека Воробья взойти на корабль «Месть Королевы Анны», которым управляет коварный злодей Черная Борода. Наш герой оказывается в ситуации, когда он не знает, чего ему бояться больше — ужасного злодея или же свою давнюю подругу.
IMDB , КиноПоиск
Формат 3D: Вертикальная анаморфная стереопара / Half OverUnder
Источник/Качество: BDRip
Формат: MKV
Видео кодек: H.26x
Аудио кодек: AC3
Видео: 1920x1080p (16:9), 23.976 fps, AVC MPEG-4 (x264), [email protected], ~14.5 mbps avg, 0.292 bit/pixel
Аудио: Русский 48 kHz, (AC3), 6 ch, ~ 384 Кбит/сек [Профессиональный (полное дублирование)]
Аудио #2: Английский 48 kHz, (AC3), 6 ch, ~ 640 Кбит/сек [Оригинал]
Аудио #3: Украинский 48 kHz, (AC3), 6 ch, ~ 384 Кбит/сек [Профессиональный (полное дублирование)]
Полное имя : D:\загрузка\pirates_of_the_caribbean_on_stranger_tides_[Pirat.ca].mkv
Формат : Matroska
Версия формата : Version 2
Размер файла : 15,5 Гбайт
Продолжительность : 2 ч. 16 м.
Общий поток : 16,2 Мбит/сек
Видео
Идентификатор : 1
Формат : AVC
Формат/Информация : Advanced Video Codec
Профиль формата : [email protected]
Параметр CABAC формата : Да
Параметр ReFrames формата : 4 кадра
Идентификатор кодека : V_MPEG4/ISO/AVC
Продолжительность : 2 ч. 16 м.
Битрейт : 14,5 Мбит/сек
Ширина : 1920 пикселей
Высота : 1080 пикселей
Соотношение сторон : 16:9
Частота кадров : 23,976 кадра/сек
Цветовое пространство : YUV
Субдискретизация насыщенности : 4:2:0
Битовая глубина : 8 бит
Тип развёртки : Прогрессивная
Бит/(Пиксели*Кадры) : 0.292
Размер потока : 13,8 Гбайт (89%)
Заголовок : Rip by ash61
Библиотека кодирования : x264 core 113 r1884 7313bb5
Настройки программы : cabac=1 / ref=4 / deblock=1:-3:-3 / analyse=0x3:0x113 / me=umh / subme=9 / psy=1 / psy_rd=1.00:0.15 / mixed_ref=1 / me_range=16 / chroma_me=1 / trellis=2 / 8x8dct=1 / cqm=0 / deadzone=21,11 / fast_pskip=1 / chroma_qp_offset=-3 / threads=3 / sliced_threads=0 / nr=0 / decimate=1 / interlaced=0 / constrained_intra=0 / bframes=6 / b_pyramid=2 / b_adapt=2 / b_bias=0 / direct=3 / weightb=1 / open_gop=0 / weightp=2 / keyint=250 / keyint_min=23 / scenecut=40 / intra_refresh=0 / rc_lookahead=60 / rc=crf / mbtree=1 / crf=18.0 / qcomp=0.70 / qpmin=1 / qpmax=51 / qpstep=4 / ip_ratio=1.40 / aq=1:1.00
Default : Да
Forced : Нет
Аудио #1
Идентификатор : 2
Формат : AC-3
Формат/Информация : Audio Coding 3
Расширение режима : CM (complete main)
Идентификатор кодека : A_AC3
Продолжительность : 2 ч. 16 м.
Вид битрейта : Постоянный
Битрейт : 384 Кбит/сек
Каналы : 6 каналов
Расположение каналов : Front: L C R, Side: L R, LFE
Частота : 48,0 КГц
Битовая глубина : 16 бит
Метод сжатия : С потерями
Размер потока : 375 Мбайт (2%)
Заголовок : DD 5.1 @ 384 kbps – Дубляж (R5)
Язык : Russian
Default : Да
Forced : Нет
Аудио #2
Идентификатор : 3
Формат : AC-3
Формат/Информация : Audio Coding 3
Расширение режима : CM (complete main)
Идентификатор кодека : A_AC3
Продолжительность : 2 ч. 16 м.
Вид битрейта : Постоянный
Битрейт : 384 Кбит/сек
Каналы : 6 каналов
Расположение каналов : Front: L C R, Side: L R, LFE
Частота : 48,0 КГц
Битовая глубина : 16 бит
Метод сжатия : С потерями
Размер потока : 375 Мбайт (2%)
Заголовок : DD 5.1 @ 384 kbps – Дубляж (R5)
Язык : Ukrainian
Default : Нет
Forced : Нет
Аудио #3
Идентификатор : 4
Формат : AC-3
Формат/Информация : Audio Coding 3
Расширение режима : CM (complete main)
Идентификатор кодека : A_AC3
Продолжительность : 2 ч. 16 м.
Вид битрейта : Постоянный
Битрейт : 640 Кбит/сек
Каналы : 6 каналов
Расположение каналов : Front: L C R, Side: L R, LFE
Частота : 48,0 КГц
Битовая глубина : 16 бит
Метод сжатия : С потерями
Размер потока : 624 Мбайт (4%)
Язык : English
Default : Нет
Forced : Нет
Меню
00:00:00.000 : :01
00:03:34.172 : :02
00:08:46.776 : :03
00:15:56.080 : :04
00:18:34.155 : :05
00:21:15.316 : :06
00:30:05.512 : :07
00:36:56.756 : :08
00:42:05.356 : :09
00:48:20.022 : :10
00:53:26.078 : :11
00:55:42.965 : :12
00:57:52.844 : :13
01:00:47.477 : :14
01:08:22.223 : :15
01:11:41.339 : :16
01:13:03.170 : :17
01:14:16.744 : :18
01:23:19.995 : :19
01:26:49.621 : :20
01:30:16.494 : :21
01:35:43.738 : :22
01:40:57.927 : :23
01:43:07.556 : :24
01:44:51.660 : :25
01:48:53.610 : :26
01:57:41.471 : :27
02:02:21.376 : :28
02:05:51.461 : :29
02:07:26.806 : :30
бюджет
$250 000 000
сборы в США
$241 071 802
сборы в мире
+ $802 800 000 = $1 043 871 802
сборы в России
$63 629 543
DVD в США
$18 116 419
зрители
Китай 12.1 млн, Россия 7.43 млн, Япония 6 млн
Download / Скачать

Хотите скачать бесплатно? Зарегистрируйтесь на сайте (ссылка на регистрацию). Pirat.ca - самый быстрый торрент трекер в рунете!

Как скачивать  ·   Что такое торрент  ·   Рейтинг и ограничения

Пост 09-Янв-2012 15:00 (спустя 2 часа 30 минут)

Топик был перенесен из форума Художественные фильмы (Зарубежное кино) в форум HD (Зарубежное Кино)

goxakrauter
 

dimkoba ®

35164

Пост 18-Янв-2012 22:58 (спустя 9 дней)

[Q] 

теперь и 3D этот фильм

_________________
[Профиль]  [ЛС] 

Пост 23-Ноя-2012 16:46 (спустя 10 месяцев 4 дня)

Топик был перенесен из форума HD (Зарубежное Кино) в форум 3D Кинофильмы

erchine
 

Solomon Vandy

Лоцман

Пост 17-Янв-2013 23:34 (спустя 11 месяцев)

[Q] 

[Профиль]  [ЛС] 

zarsem

Лоцман

Пост 26-Янв-2013 14:25 (спустя 8 дней)

[Q] 

[Профиль]  [ЛС] 

okorm

Легенда

901

Пост 29-Янв-2013 18:05 (спустя 3 дня)

[Q] 

[Профиль]  [ЛС] 

kolking89

Морской Волк

Пост 02-Фев-2013 00:44 (спустя 3 дня)

[Q] 

спс))) скоро заценю))))
[Профиль]  [ЛС] 

balabas13

Лоцман

Пост 19-Авг-2013 18:35 (спустя 6 месяцев 17 дней)

[Q] 

ДАЙТЕ СКОРОСТИ!!!
[Профиль]  [ЛС] 

offluk

Пост 05-Сен-2013 09:46 (спустя 16 дней)

[Q] 

Круто! качаю!
[Профиль]  [ЛС] 

GamerX

Штурман

Пост 22-Ноя-2013 10:15 (спустя 2 месяца 17 дней)

[Q] 

Йо хо хо. Мой корвет спешит на раздачу!

_________________
19 личей
В раз качают торрент!
Йо хо хо!
Но один лишь сииидер!
[Профиль]  [ЛС] 

dragan123

Морской Волк

Пост 28-Ноя-2013 18:02 (спустя 6 дней)

[Q] 

Спасибо!!!
[Профиль]  [ЛС] 

Lifted

Флибустьер

221

Пост 30-Янв-2014 00:47 (спустя 2 месяца 1 день)

[Q] 

Пиратка рулез!!! поддержу
[Профиль]  [ЛС] 

Skylife

Лоцман

Пост 01-Май-2014 20:03 (спустя 3 месяца 2 дня)

[Q] 

раздающие вы где????????? Раздавать будем или как?
[Профиль]  [ЛС] 

Golsergio

Гроза морей

Пост 07-Авг-2017 16:13 (спустя 3 года 3 месяца)

[Q] 

первые части фильма можно в 3D найти? Лови бочку
[Профиль]  [ЛС] 

KHETAG

Морской Волк

Пост 09-Фев-2018 06:24 (спустя 6 месяцев 1 день)

[Q] 

Отличный фильм! Супер! Лови бочку
[Профиль]  [ЛС] 
Показать сообщения:    
Ответить на тему

Текущее время: Сегодня 22:26

Часовой пояс: GMT + 4



Вы не можете начинать темы
Вы не можете отвечать на сообщения
Вы не можете редактировать свои сообщения
Вы не можете удалять свои сообщения
Вы не можете голосовать в опросах
Вы не можете прикреплять файлы к сообщениям
Вы не можете скачивать файлы

Майнать ▼