Наёмник / American Assassin (Майкл Куэста / Michael Cuesta) [2017 г., боевик, триллер, BDRip] Dub [Чистый звук] + Original (Eng)

Ответить на тему
 
Автор
Сообщение

Пост 31-Дек-2017 07:55

[Q] 

aleksey99

--Наёмник / American Assassin--«Assassins aren't born. They're made»-- Производство: США / CBS Films, Di Bonaventura Pictures, Lionsgate, Nick Wechsler Productions
Год выпуска: 2017 г.
Жанр: боевик, триллер
Продолжительность: 01:51:38--Мировая премьера: 6 сентября 2017
Российская премьера: 28 сентября 2017, «Централ Партнершип»
Цифровой релиз: 20 декабря 2017, «Централ Партнершип»--Перевод: Профессиональный (полное дублирование) [Чистый звук]
Оригинальный аудиопоток: английский--Режиссер: Майкл Куэста / Michael Cuesta--В ролях: Дилан О’Брайен, Майкл Китон, Санаа Лэтэн, Шива Негар, Тейлор Китч, Дэвид Суше, Навид Негабан, Скотт Эдкинс, Шарлотта Вега, Кристофер Уэбстер--Описание: Тайный наёмник ЦРУ Митч Рэпп раздавлен потерей невесты в результате теракта. Заместитель директора ЦРУ назначает Стэна Хёрли обучать убитого горем, но серьёзно настроенного Митча для предотвращения террористических операций и охоты на преступников. Вместе они исследуют волну, на первый взгляд, случайных нападений на военные и гражданские объекты. Но позже напарникам предстоит объединиться с турецким агентом, чтобы предотвратить начало Третьей мировой войны на Ближнем Востоке.-- --Качество видео: BDRip
Контейнер: AVI
Видео кодек: XviD
Аудио кодек: AC3
Видео: 720x304 (2.37:1), 23.976 fps, XviD build 73 ~1414 kbps avg, 0.27 bit/pixel
Аудио: 48 kHz, AC3 Dolby Digital, 2/0 (L,R) ch, ~192 kbps RUS
Аудио: 48 kHz, AC3 Dolby Digital, 2/0 (L,R) ch, ~256 kbps ENG
Cубтитры: отсутствуют.
Общее
Полное имя : H:\Torrent2\Naemnik.2017.D.Line.BDRip.1400Mb.avi
Формат : AVI
Формат/Информация : Audio Video Interleave
Размер файла : 1,46 Гбайт
Продолжительность : 1 ч. 51 м.
Общий поток : 1878 Кбит/сек
Программа кодирования : V
Видео
Идентификатор : 0
Формат : MPEG-4 Visual
Профиль формата : Advanced [email protected]
Параметр BVOP формата : 2
Параметр QPel формата : Нет
Параметр GMC формата : Без точки перехода
Параметр матрицы формата : Выборочная
Идентификатор кодека : XVID
Идентификатор кодека/Подсказка : XviD
Продолжительность : 1 ч. 51 м.
Битрейт : 1416 Кбит/сек
Ширина : 720 пикселей
Высота : 304 пикселя
Соотношение сторон : 2,35:1
Частота кадров : 23,976 (24000/1001) кадра/сек
Цветовое пространство : YUV
Субдискретизация насыщенности : 4:2:0
Битовая глубина : 8 бит
Тип развёртки : Прогрессивная
Метод сжатия : С потерями
Бит/(Пиксели*Кадры) : 0.270
Размер потока : 1,10 Гбайт (75%)
Библиотека кодирования : XviD 73
Аудио #1
Идентификатор : 1
Формат : AC-3
Формат/Информация : Audio Coding 3
Расширение режима : CM (complete main)
Параметр Endianness формата : Big
Идентификатор кодека : 2000
Продолжительность : 1 ч. 51 м.
Вид битрейта : Постоянный
Битрейт : 192 Кбит/сек
Каналы : 2 канала
Расположение каналов : Front: L R
Частота : 48,0 КГц
Частота кадров : 31,250 кадров/сек (1536 spf)
Метод сжатия : С потерями
Размер потока : 153 Мбайт (10%)
Выравнивание : Соединение по промежуткам
Продолжительность промежутка : 42 мс. (1,00 видеокадр)
Время предзагрузки промежутка : 512 мс.
Аудио #2
Идентификатор : 2
Формат : AC-3
Формат/Информация : Audio Coding 3
Расширение режима : CM (complete main)
Параметр Endianness формата : Big
Идентификатор кодека : 2000
Продолжительность : 1 ч. 51 м.
Вид битрейта : Постоянный
Битрейт : 256 Кбит/сек
Каналы : 2 канала
Расположение каналов : Front: L R
Частота : 48,0 КГц
Частота кадров : 31,250 кадров/сек (1536 spf)
Метод сжатия : С потерями
Размер потока : 204 Мбайт (14%)
Выравнивание : Разделение по промежуткам
Продолжительность промежутка : 42 мс. (1,00 видеокадр)
Время предзагрузки промежутка : 500 мс.
Трейлер
Download / Скачать

Хотите скачать бесплатно? Зарегистрируйтесь на сайте (ссылка на регистрацию). Pirat.ca - самый быстрый торрент трекер в рунете!

Как скачивать  ·   Что такое торрент  ·   Рейтинг и ограничения

zmaksimz

Корсар

Пост 31-Дек-2017 16:10 (спустя 8 часов)

[Q] 

Можно вечерок скоротать за просмотром
[Профиль]  [ЛС] 

fishman

Флибустьер

Пост 31-Дек-2017 18:55 (спустя 2 часа 44 минуты)

[Q] 

Спасибо!!! rum

_________________
|___|___|___|___|___|___|___|__|__
__|__|__|_Биться головой_|___|___|
|___|___|___|__сюда!!___|___|__|__
__|___|___|___|___|___|___|__|__
[Профиль]  [ЛС] 

feldorius

Корсар

Пост 31-Дек-2017 21:31 (спустя 2 часа 36 минут)

[Q] 

Сиськи специально самым первым скрином поставили - чтобы я скачал?
[Профиль]  [ЛС] 

Skat.56

Легенда

452

Пост 01-Янв-2018 00:19 (спустя 2 часа 47 минут)

[Q] 

815727Сиськи специально самым первым скрином поставили - чтобы я скачал?
Специально про сиськи написал, что бы я посмотрел скрин и скачал?

_________________
[Профиль]  [ЛС] 

Пост 09-Фев-2018 16:46 (спустя 1 месяц 8 дней)

Топик был перенесен из форума Новинки (HD|DVD|BD| TV|SAT|PDTV| - Rips) в форум Фильмы 2010 - 2017 г.г.
aleksey99
 

SwordFish

Морской Волк

631

Пост 13-Май-2018 14:05 (спустя 4 месяца 12 дней)

[Q] 

Стандартный боевичек про разведку и террористов, про ядреные бомбы сделанные на задворках аулов, но с крутым интерфейсом таймера и что бы обязательно сенсорный и пикал при нажатии. cr
В общем вечерком можно глянуть.
[Профиль]  [ЛС] 
Показать сообщения:    
Ответить на тему

Текущее время: Сегодня 04:26

Часовой пояс: GMT + 4



Вы не можете начинать темы
Вы не можете отвечать на сообщения
Вы не можете редактировать свои сообщения
Вы не можете удалять свои сообщения
Вы не можете голосовать в опросах
Вы не можете прикреплять файлы к сообщениям
Вы не можете скачивать файлы

Майнать ▼