Валериан и город тысячи планет / Valerian and the City of a Thousand Planets (Люк Бессон / Luc Besson) [2017 г., фантастика, фэнтези, боевик, приключения, BDRip-AVC] Dub [Лицензия] + Sub (Rus, Eng)

Ответить на тему
 
Автор
Сообщение

Пост 01-Янв-2018 12:48

[Q] 

aleksey99

--Валериан и город тысячи планет / Valerian and the City of a Thousand Planets--«From the visionary director of The Fifth Element and Lucy»-- Производство: Франция, Китай, Бельгия, Германия, ОАЭ, США / EuropaCorp, Fundamental Films, Grive Productions, Gulf Film, Novo Pictures
Год выпуска: 2017 г.
Жанр: фантастика, фэнтези, боевик, приключения
Продолжительность: 02:16:57--Мировая премьера: 17 июля 2017
Российская премьера: 10 августа 2017, «Наше Кино», «A-One Films»
Цифровой релиз: 28 ноября 2017, «Граунд Групп»--Перевод: Профессиональный (полное дублирование) [Лицензия]--Режиссер: Люк Бессон / Luc Besson--В ролях: Дэйн ДеХаан, Кара Делевинь, Клайв Оуэн, Рианна, Итэн Хоук, Херби Хэнкок, Крис У, Сэм Спруэлл, Ален Шаба, Рутгер Хауэр--Описание: 2700 год. Валериан и Лорелин — космические спецагенты, которые по долгу службы впутались в подозрительное дело и стали невольными участниками то ли межгалактического заговора, то ли аферы причудливых поселенцев планеты Альфа, прибывших туда из различных миров со всех уголков галактик.-- --Качество видео: BDRip-AVC
Контейнер: MKV
Видео кодек: AVC/H.264
Аудио кодек: AC3
Видео: AVC, 1024x428 (2.40:1), 23.976 fps, 2129 Kbps, 0.203 bit/pixel
Аудио: 48 kHz, AC3 Dolby Digital, 3/2 (L,C,R,l,r) + LFE ch, ~448 kbps
Cубтитры: русские (форсированные+хардсаб, полные), английские.
Общее
Уникальный идентификатор : 184687681634889162415311399587890215286 (0x8AF18DBB7B922D548308383EA0C23976)
Полное имя : H:\Torrent2\Valerian.and.the.City.of.a.Thousand.Planets.2017.RusTransfer.BDRip.AVC.mkv
Формат : Matroska
Версия формата : Version 2
Размер файла : 2,47 Гбайт
Продолжительность : 2 ч. 16 м.
Общий поток : 2577 Кбит/сек
Дата кодирования : UTC 2017-12-22 15:56:11
Программа кодирования : mkvmerge v5.6.0 ('Kenya Kane') built on May 27 2012 16:44:04
Библиотека кодирования : libebml v1.2.3 + libmatroska v1.3.0
Видео
Идентификатор : 1
Формат : AVC
Формат/Информация : Advanced Video Codec
Профиль формата : [email protected]
Параметр CABAC формата : Да
Параметр ReFrames формата : 11 кадров
Идентификатор кодека : V_MPEG4/ISO/AVC
Продолжительность : 2 ч. 16 м.
Битрейт : 2129 Кбит/сек
Ширина : 1024 пикселя
Высота : 428 пикселей
Соотношение сторон : 2,40:1
Режим частоты кадров : Постоянный
Частота кадров : 23,976 (24000/1001) кадра/сек
Цветовое пространство : YUV
Субдискретизация насыщенности : 4:2:0
Битовая глубина : 8 бит
Тип развёртки : Прогрессивная
Бит/(Пиксели*Кадры) : 0.203
Размер потока : 1,99 Гбайт (81%)
Заголовок : Enigma
Библиотека кодирования : x264 core 152 r2851 ba24899
Настройки программы : cabac=1 / ref=11 / deblock=1:-3:-3 / analyse=0x3:0x113 / me=umh / subme=11 / psy=1 / psy_rd=1.05:0.05 / mixed_ref=1 / me_range=32 / chroma_me=1 / trellis=2 / 8x8dct=1 / cqm=0 / deadzone=21,11 / fast_pskip=0 / chroma_qp_offset=-3 / threads=12 / lookahead_threads=3 / sliced_threads=0 / nr=0 / decimate=0 / interlaced=0 / bluray_compat=0 / constrained_intra=0 / bframes=10 / b_pyramid=2 / b_adapt=2 / b_bias=0 / direct=3 / weightb=1 / open_gop=0 / weightp=2 / keyint=240 / keyint_min=23 / scenecut=40 / intra_refresh=0 / rc_lookahead=40 / rc=2pass / mbtree=0 / bitrate=2129 / ratetol=1.0 / qcomp=0.67 / qpmin=0 / qpmax=51 / qpstep=4 / cplxblur=20.0 / qblur=0.5 / vbv_maxrate=50000 / vbv_bufsize=62500 / nal_hrd=none / filler=0 / ip_ratio=1.40 / pb_ratio=1.30 / aq=3:0.90
Язык : English
Default : Да
Forced : Нет
Цветовой диапазон : Limited
Основные цвета : BT.709
Характеристики трансфера : BT.709
Коэффициенты матрицы : BT.709
Аудио
Идентификатор : 2
Формат : AC-3
Формат/Информация : Audio Coding 3
Расширение режима : CM (complete main)
Параметр Endianness формата : Big
Идентификатор кодека : A_AC3
Продолжительность : 2 ч. 16 м.
Вид битрейта : Постоянный
Битрейт : 448 Кбит/сек
Каналы : 6 каналов
Расположение каналов : Front: L C R, Side: L R, LFE
Частота : 48,0 КГц
Частота кадров : 31,250 кадров/сек (1536 spf)
Метод сжатия : С потерями
Размер потока : 439 Мбайт (17%)
Заголовок : Dub (BD Rus)
Язык : Russian
Default : Да
Forced : Нет
Текст #1
Идентификатор : 3
Формат : UTF-8
Идентификатор кодека : S_TEXT/UTF8
Идентификатор кодека/Информация : UTF-8 Plain Text
Заголовок : Forced
Язык : Russian
Default : Да
Forced : Да
Текст #2
Идентификатор : 4
Формат : UTF-8
Идентификатор кодека : S_TEXT/UTF8
Идентификатор кодека/Информация : UTF-8 Plain Text
Заголовок : Full
Язык : Russian
Default : Нет
Forced : Нет
Текст #3
Идентификатор : 5
Формат : UTF-8
Идентификатор кодека : S_TEXT/UTF8
Идентификатор кодека/Информация : UTF-8 Plain Text
Заголовок : Full
Язык : English
Default : Нет
Forced : Нет
Текст #4
Идентификатор : 6
Формат : UTF-8
Идентификатор кодека : S_TEXT/UTF8
Идентификатор кодека/Информация : UTF-8 Plain Text
Заголовок : SDH
Язык : English
Default : Нет
Forced : Нет
Меню
00:00:00.000 : :Chapter 01
00:16:08.509 : :Chapter 02
00:34:27.607 : :Chapter 03
00:50:01.206 : :Chapter 04
01:08:12.963 : :Chapter 05
01:26:22.427 : :Chapter 06
01:39:57.700 : :Chapter 07
01:57:43.056 : :Chapter 08
Трейлер
Download / Скачать

Хотите скачать бесплатно? Зарегистрируйтесь на сайте (ссылка на регистрацию). Pirat.ca - самый быстрый торрент трекер в рунете!

Как скачивать  ·   Что такое торрент  ·   Рейтинг и ограничения

Пост 09-Фев-2018 16:46 (спустя 1 месяц 8 дней)

Топик был перенесен из форума Новинки (HD|DVD|BD| TV|SAT|PDTV| - Rips) в форум Фильмы 2010 - 2017 г.г.
aleksey99
 

mechlek

Морской Волк

Пост 25-Мар-2018 14:53 (спустя 2 месяца 24 дня)

[Q] 

Спасибо за раздачу
Пиратка рулез!!!
[Профиль]  [ЛС] 
Показать сообщения:    
Ответить на тему

Текущее время: Сегодня 01:15

Часовой пояс: GMT + 4



Вы не можете начинать темы
Вы не можете отвечать на сообщения
Вы не можете редактировать свои сообщения
Вы не можете удалять свои сообщения
Вы не можете голосовать в опросах
Вы не можете прикреплять файлы к сообщениям
Вы не можете скачивать файлы

Майнать ▼