Между нами горы / The Mountain Between Us (Хани Абу-Ассад / Hany Abu-Assad) [2017 г., боевик, триллер, драма, мелодрама, приключения, BDRip] Dub [iTunes]

Ответить на тему
 
Автор
Сообщение

Пост 04-Янв-2018 07:34

[Q] 

aleksey99

--Между нами горы / The Mountain Between Us--«Что, если бы твоя жизнь зависела от незнакомца?»-- Производство: США / Chernin Entertainment, Twentieth Century Fox Film Corporation
Год выпуска: 2017 г.
Жанр: боевик, триллер, драма, мелодрама, приключения
Продолжительность: 01:51:49--Мировая премьера: 9 сентября 2017
Российская премьера: 5 октября 2017, «Двадцатый Век Фокс СНГ»
Цифровой релиз: 01 января 2018, «Двадцатый Век Фокс СНГ»--Перевод: Профессиональный (полное дублирование) [iTunes]--Режиссер: Хани Абу-Ассад / Hany Abu-Assad--В ролях: Идрис Эльба, Кейт Уинслет, Бо Бриджес, Дермот Малруни, Линда Соренсон, Винсент Гэйл, Марси Т. Хаус, Ли Мадждуб, Андрес Джозеф--Описание: Бен и Алекс, уцелевшие после авиакатастрофы, должны найти общий язык, чтобы выжить в экстремальных условиях далеких заснеженных гор. Когда они понимают, что на помощь к ним никто не придет, они вынуждены отправиться в опасный путь длиной в сотни километров. В борьбе за жизнь между двумя еще вчера незнакомыми людьми неожиданно возникает притяжение.-- --Качество видео: BDRip
Контейнер: AVI
Видео кодек: XviD
Аудио кодек: AC3
Видео: 720x304 (2.37:1), 23.976 fps, XviD build 73 ~1412 kbps avg, 0.27 bit/pixel
Аудио: 48 kHz, AC3 Dolby Digital, 3/2 (L,C,R,l,r) + LFE ch, ~384 kbps
Cубтитры: отсутствуют.
Общее
Полное имя : H:\Torrent2\The.Mountain.Between.Us.2017.BDRip.1.41Gb.avi
Формат : AVI
Формат/Информация : Audio Video Interleave
Размер файла : 1,41 Гбайт
Продолжительность : 1 ч. 51 м.
Общий поток : 1806 Кбит/сек
Программа кодирования : VirtualDubMod 1.5.10.2 (build 2540/release)
Библиотека кодирования : VirtualDubMod build 2540/release
Видео
Идентификатор : 0
Формат : MPEG-4 Visual
Профиль формата : Advanced [email protected]
Параметр BVOP формата : 1
Параметр QPel формата : Нет
Параметр GMC формата : Без точки перехода
Параметр матрицы формата : Выборочная
Идентификатор кодека : XVID
Идентификатор кодека/Подсказка : XviD
Продолжительность : 1 ч. 51 м.
Битрейт : 1413 Кбит/сек
Ширина : 720 пикселей
Высота : 304 пикселя
Соотношение сторон : 2,35:1
Частота кадров : 23,976 (24000/1001) кадра/сек
Цветовое пространство : YUV
Субдискретизация насыщенности : 4:2:0
Битовая глубина : 8 бит
Тип развёртки : Прогрессивная
Метод сжатия : С потерями
Бит/(Пиксели*Кадры) : 0.269
Размер потока : 1,10 Гбайт (78%)
Библиотека кодирования : XviD 73
Аудио
Идентификатор : 1
Формат : AC-3
Формат/Информация : Audio Coding 3
Расширение режима : CM (complete main)
Параметр Endianness формата : Big
Идентификатор кодека : 2000
Продолжительность : 1 ч. 51 м.
Вид битрейта : Постоянный
Битрейт : 384 Кбит/сек
Каналы : 6 каналов
Расположение каналов : Front: L C R, Side: L R, LFE
Частота : 48,0 КГц
Частота кадров : 31,250 кадров/сек (1536 spf)
Метод сжатия : С потерями
Размер потока : 307 Мбайт (21%)
Выравнивание : Разделение по промежуткам
Продолжительность промежутка : 42 мс. (1,00 видеокадр)
Время предзагрузки промежутка : 500 мс.
Трейлер
Download / Скачать

Хотите скачать бесплатно? Зарегистрируйтесь на сайте (ссылка на регистрацию). Pirat.ca - самый быстрый торрент трекер в рунете!

Как скачивать  ·   Что такое торрент  ·   Рейтинг и ограничения

Apostle358

Корсар

168

Пост 04-Янв-2018 14:22 (спустя 6 часов)

[Q] 

Хорошая драма с хеппи эндом. Рекомендую для семейного просмотра, женщины будут в восторге! 8/10.
[Профиль]  [ЛС] 

avelinio

Штурман

Пост 04-Янв-2018 17:24 (спустя 3 часа)

[Q] 

815982Хорошая драма с хеппи эндом. Рекомендую для семейного просмотра, женщины будут в восторге! 8/10.
для кого-то и обглоданный волками негр - это хорошая концовка
[Профиль]  [ЛС] 

qwers1

Шкипер

Пост 04-Янв-2018 23:59 (спустя 6 часов)

[Q] 

Фильм не реалистичен,диких животных в горах пруд-пруди,которые постоянно голодные,а к ним один раз пумы только приходили.Собаку бы точно задрали бы сразу домашнею.Фильм направлен на женскую аудиторию,сопли,слезы,переживания,в фильме всё очень далеко от реальности,прогулка по горам надо было назвать.
[Профиль]  [ЛС] 

clark

Флибустьер

Пост 05-Янв-2018 00:21 (спустя 21 минута)

[Q] 

спасибо посмотрим

_________________
Последним смеётся тот, кто стреляет первым.
[Профиль]  [ЛС] 

reg25

Пост 05-Янв-2018 02:46 (спустя 2 часа 25 минут)

[Q] 

816055Фильм не реалистичен,диких животных в горах пруд-пруди,которые постоянно голодные,а к ним один раз пумы только приходили.Собаку бы точно задрали бы сразу домашнею.Фильм направлен на женскую аудиторию,сопли,слезы,переживания,в фильме всё очень далеко от реальности,прогулка по горам надо было назвать.
Сюжет фильма - это только оболочка, в которой скрыто содержание,
которое создатели фильма и хотели донести до зрителей...
[Профиль]  [ЛС] 

Apostle358

Корсар

168

Пост 05-Янв-2018 07:47 (спустя 5 часов)

[Q] 

816000
815982Хорошая драма с хеппи эндом. Рекомендую для семейного просмотра, женщины будут в восторге! 8/10.
для кого-то и обглоданный волками негр - это хорошая концовка
СЕМЕЙНАЯ ДРАМА вам что-нибудь говорит? Или ваша жена предпочитает смотреть ЛИКИ СМЕРТИ на сон грядущий?
[Профиль]  [ЛС] 

Пост 09-Фев-2018 16:46 (спустя 1 месяц 4 дня)

Топик был перенесен из форума Новинки (HD|DVD|BD| TV|SAT|PDTV| - Rips) в форум Фильмы 2010 - 2017 г.г.
aleksey99
 
Показать сообщения:    
Ответить на тему

Текущее время: Сегодня 03:19

Часовой пояс: GMT + 4



Вы не можете начинать темы
Вы не можете отвечать на сообщения
Вы не можете редактировать свои сообщения
Вы не можете удалять свои сообщения
Вы не можете голосовать в опросах
Вы не можете прикреплять файлы к сообщениям
Вы не можете скачивать файлы

Майнать ▼