Эспен в королевстве троллей / Askeladden - I Dovregubbens hall (Миккель Бренне Сандемусе / Mikkel Brænne Sandemose) [2017 г., приключения, WEB-DLRip-AVC] Dub [iTunes]

Ответить на тему
 
Автор
Сообщение

Пост 02-Янв-2018 20:01

[Q] 

aleksey99

--Эспен в королевстве троллей / Askeladden - I Dovregubbens hall-- Производство: Норвегия / Maipo Film, Sirena Film, Subotica Entertainment
Год выпуска: 2017 г.
Жанр: приключения
Продолжительность: 01:44:33--Мировая премьера: 29 сентября 2017
Российская премьера: 7 декабря 2017, «Capella Film»
Цифровой релиз: 25 декабря 2017, «Capella Film»--Перевод: Профессиональный (полное дублирование) [iTunes]--Режиссер: Миккель Бренне Сандемусе / Mikkel Brænne Sandemose--В ролях: Вебьёрн Энгер, Элли Харбоа, Мэдс Сьёгард Петтерсен, Элиас Хольмен Сёренсен, Эллан Хайд, Гискен Арманд, Гард Б. Эйдсвольд, Синневе Макоди Лунд, Торбьорн Харр, Ида Урсин-Хольм--Описание: Отважный Эспен отправляется в увлекательное и опасное приключение к пещере горного короля, чтобы спасти принцессу и все королевство.-- --Качество видео: WEB-DLRip-AVC
Контейнер: AVI
Видео кодек: XviD
Аудио кодек: AC3
Видео: 1024x432 (2.40:1), 24 fps, MPEG-4 AVC ~ 1600 kbps (0.151 bit/pixel)
Аудио: 48 kHz, AC3 Dolby Digital, 3/2 (L,C,R,l,r) + LFE ch, ~384 kbps
Cубтитры: отсутствуют.
Общее
Уникальный идентификатор : 209831853938035672121929451456803460630 (0x9DDC2523DE41C7968CC09833C4015616)
Полное имя : H:\Torrent2\Askeladden.I.Dovregubbens.hall.[2017].WEB-DLRip-AVC.mkv
Формат : Matroska
Версия формата : Version 2
Размер файла : 1,45 Гбайт
Продолжительность : 1 ч. 44 м.
Общий поток : 1984 Кбит/сек
Дата кодирования : UTC 2017-12-25 19:09:38
Программа кодирования : mkvmerge v7.8.0 ('River Man') 32bit built on Apr 3 2015 12:11:22
Библиотека кодирования : libebml v1.3.1 + libmatroska v1.4.2
Видео
Идентификатор : 1
Формат : AVC
Формат/Информация : Advanced Video Codec
Профиль формата : [email protected]
Параметр CABAC формата : Да
Параметр ReFrames формата : 11 кадров
Идентификатор кодека : V_MPEG4/ISO/AVC
Продолжительность : 1 ч. 44 м.
Битрейт : 1600 Кбит/сек
Ширина : 1024 пикселя
Высота : 432 пикселя
Соотношение сторон : 2,40:1
Режим частоты кадров : Постоянный
Частота кадров : 24,000 кадра/сек
Цветовое пространство : YUV
Субдискретизация насыщенности : 4:2:0
Битовая глубина : 8 бит
Тип развёртки : Прогрессивная
Бит/(Пиксели*Кадры) : 0.151
Размер потока : 1,14 Гбайт (79%)
Библиотека кодирования : x264 core 146 r2538 121396c
Настройки программы : cabac=1 / ref=11 / deblock=1:-3:-3 / analyse=0x3:0x113 / me=umh / subme=11 / psy=1 / psy_rd=1.00:0.00 / mixed_ref=1 / me_range=48 / chroma_me=1 / trellis=2 / 8x8dct=1 / cqm=0 / deadzone=21,11 / fast_pskip=0 / chroma_qp_offset=-2 / threads=6 / lookahead_threads=1 / sliced_threads=0 / nr=0 / decimate=0 / interlaced=0 / bluray_compat=0 / constrained_intra=0 / bframes=11 / b_pyramid=2 / b_adapt=2 / b_bias=0 / direct=3 / weightb=1 / open_gop=0 / weightp=2 / keyint=240 / keyint_min=23 / scenecut=40 / intra_refresh=0 / rc_lookahead=40 / rc=2pass / mbtree=0 / bitrate=1600 / ratetol=1.0 / qcomp=0.60 / qpmin=0 / qpmax=69 / qpstep=4 / cplxblur=20.0 / qblur=0.5 / vbv_maxrate=50000 / vbv_bufsize=62500 / nal_hrd=none / filler=0 / ip_ratio=1.40 / pb_ratio=1.30 / aq=1:1.10
Default : Да
Forced : Нет
Аудио
Идентификатор : 2
Формат : AC-3
Формат/Информация : Audio Coding 3
Расширение режима : CM (complete main)
Параметр Endianness формата : Big
Идентификатор кодека : A_AC3
Продолжительность : 1 ч. 44 м.
Вид битрейта : Постоянный
Битрейт : 384 Кбит/сек
Каналы : 6 каналов
Расположение каналов : Front: L C R, Side: L R, LFE
Частота : 48,0 КГц
Частота кадров : 31,250 кадров/сек (1536 spf)
Метод сжатия : С потерями
Размер потока : 287 Мбайт (19%)
Default : Да
Forced : Нет
Трейлер
Download / Скачать

Хотите скачать бесплатно? Зарегистрируйтесь на сайте (ссылка на регистрацию). Pirat.ca - самый быстрый торрент трекер в рунете!

Как скачивать  ·   Что такое торрент  ·   Рейтинг и ограничения

jofrei53

Флибустьер

Пост 02-Янв-2018 21:11 (спустя 1 час 9 минут)

[Q] 

Спасибо! С Новым Годом!!! Автору респект!!! Лови бочку
[Профиль]  [ЛС] 

Полтос

Гроза морей

Пост 14-Янв-2018 16:11 (спустя 11 дней)

[Q] 

Великолепный фильм! Давненько я не видел сказки, сделанной столь же толково и продуманно, как здесь. Фильм снят красиво и сочно, как это ни удивительно - в классическом советском духе с применением вполне проходной графики. На две головы выше того же самого "Последнего богатыря". Короче, обязателен к семейному просмотру!!! И да, мне понравился!!!
Всем качать!!! Супер!

_________________
Первый закон Прапорщика: Всё что поднимаемо - относительно!)
[Профиль]  [ЛС] 

a s d

Морской Волк

1

Пост 15-Янв-2018 00:53 (спустя 8 часов)

[Q] 

затянуто На любителя
[Профиль]  [ЛС] 

Пост 09-Фев-2018 16:50 (спустя 25 дней)

Топик был перенесен из форума Новинки (HD|DVD|BD| TV|SAT|PDTV| - Rips) в форум Фильмы 2010 - 2017 г.г.
aleksey99
 
Показать сообщения:    
Ответить на тему

Текущее время: Сегодня 03:22

Часовой пояс: GMT + 4



Вы не можете начинать темы
Вы не можете отвечать на сообщения
Вы не можете редактировать свои сообщения
Вы не можете удалять свои сообщения
Вы не можете голосовать в опросах
Вы не можете прикреплять файлы к сообщениям
Вы не можете скачивать файлы

Майнать ▼