Вышибала: Эпический замес / Goon: Last of the Enforcers (Джей Барушель / Jay Baruchel) [2017 г., комедия, спорт, BDRip-AVC] VO x 2 [М.Яроцкий, Пучков] + Original (Eng) + Sub (Eng)

Ответить на тему
 
Автор
Сообщение

Пост 03-Янв-2018 10:01

[Q] 

aleksey99

--Вышибала: Эпический замес / Goon: Last of the Enforcers--«Забей на всё!»-- Производство: Канада / Caramel Film, No Trace Camping
Год выпуска: 2017 г.
Жанр: комедия, спорт
Продолжительность: 01:41:05--Мировая премьера: 17 марта 2017
Российская премьера: 31 августа 2017, «Экспонента»
Цифровой релиз: 15 января 2018, «Экспонента»--Перевод 1: Одноголосый, закадровый М.Яроцкий
Перевод 2: Одноголосый, закадровый Дмитрий Пучков (Гоблин)
Оригинальный аудиопоток: английский--Режиссер: Джей Барушель / Jay Baruchel--В ролях: Шонн Уильям Скотт, Джей Барушель, ТиДжей Миллер, Элиша Катберт, Лив Шрайбер, Уайатт Расселл, Элисон Пилл, Ким Коутс, Каллум Кит Ренни, Марк-Андре Гронден--Описание: Даг — хоккеист, который совершенно не умеет играть в хоккей, но запросто может положить любого с помощью своих могучих кулаков. В результате травмы ударной правой руки ему приходится покинуть хоккей. Но как смириться со скучной офисной работой, когда капитаном твоей команды становится какой-то наглый мордоворот. Дагу придется объединиться со своим злейшим врагом, чтобы вернуться на лед и сделать своих соперников одной левой. Больше отжига, больше беспредела!-- --Качество видео: BDRip-AVC
Контейнер: MKV
Видео кодек: AVC/H.264
Аудио кодек: AC3
Видео: MPEG-4 AVC, 1024x428 (2.40:1), 1920 Kbit/s, 23.976 fps, 0,183 bpp
Аудио 1: 48 kHz, AC3 Dolby Digital, 3/2 (L,C,R,l,r) + LFE ch, ~384 kbps М.Яроцкий
Аудио 2: 48,0 kHz, MP3, 2 ch, ~320 kbps ENG Пучков
Аудио 3: 48 kHz, AC3 Dolby Digital, 3/2 (L,C,R,l,r) + LFE ch, ~448 kbps ENG
Cубтитры: английские.
Общее
Уникальный идентификатор : 218571993840486586956905016561936193981 (0xA46F6F4EABE64973BF5981227BBD59BD)
Полное имя : H:\Torrent2\Goon.Last.of.the.Enforcers.2017.AVO.BDRip.AVC.mkv
Формат : Matroska
Версия формата : Version 2
Размер файла : 2,17 Гбайт
Продолжительность : 1 ч. 41 м.
Общий поток : 3073 Кбит/сек
Дата кодирования : UTC 2017-09-29 05:19:31
Программа кодирования : mkvmerge v5.6.0 ('Kenya Kane') built on May 27 2012 16:44:04
Библиотека кодирования : libebml v1.2.3 + libmatroska v1.3.0
Видео
Идентификатор : 1
Формат : AVC
Формат/Информация : Advanced Video Codec
Профиль формата : [email protected]
Параметр CABAC формата : Да
Параметр ReFrames формата : 12 кадров
Идентификатор кодека : V_MPEG4/ISO/AVC
Продолжительность : 1 ч. 41 м.
Битрейт : 1920 Кбит/сек
Ширина : 1024 пикселя
Высота : 428 пикселей
Соотношение сторон : 2,40:1
Режим частоты кадров : Постоянный
Частота кадров : 23,976 (23976/1000) кадра/сек
Цветовое пространство : YUV
Субдискретизация насыщенности : 4:2:0
Битовая глубина : 8 бит
Тип развёртки : Прогрессивная
Бит/(Пиксели*Кадры) : 0.183
Размер потока : 1,31 Гбайт (61%)
Заголовок : Enigma
Библиотека кодирования : x264 core 152 r2851 ba24899
Настройки программы : cabac=1 / ref=12 / deblock=1:-2:-2 / analyse=0x3:0x113 / me=umh / subme=10 / psy=1 / psy_rd=1.00:0.00 / mixed_ref=1 / me_range=32 / chroma_me=1 / trellis=2 / 8x8dct=1 / cqm=0 / deadzone=21,11 / fast_pskip=1 / chroma_qp_offset=-2 / threads=12 / lookahead_threads=3 / sliced_threads=0 / nr=0 / decimate=0 / interlaced=0 / bluray_compat=0 / constrained_intra=0 / bframes=12 / b_pyramid=2 / b_adapt=2 / b_bias=0 / direct=3 / weightb=1 / open_gop=0 / weightp=2 / keyint=240 / keyint_min=23 / scenecut=40 / intra_refresh=0 / rc_lookahead=40 / rc=2pass / mbtree=0 / bitrate=1920 / ratetol=1.0 / qcomp=0.60 / qpmin=0 / qpmax=51 / qpstep=4 / cplxblur=20.0 / qblur=0.5 / vbv_maxrate=50000 / vbv_bufsize=62500 / nal_hrd=none / filler=0 / ip_ratio=1.40 / pb_ratio=1.30 / aq=3:0.90
Язык : English
Default : Да
Forced : Нет
Аудио #1
Идентификатор : 2
Формат : AC-3
Формат/Информация : Audio Coding 3
Расширение режима : CM (complete main)
Параметр Endianness формата : Big
Идентификатор кодека : A_AC3
Продолжительность : 1 ч. 41 м.
Вид битрейта : Постоянный
Битрейт : 384 Кбит/сек
Каналы : 6 каналов
Расположение каналов : Front: L C R, Side: L R, LFE
Частота : 48,0 КГц
Частота кадров : 31,250 кадров/сек (1536 spf)
Метод сжатия : С потерями
Размер потока : 278 Мбайт (12%)
Заголовок : AVO (Kyberpunk)
Язык : Russian
Default : Да
Forced : Нет
Аудио #2
Идентификатор : 3
Формат : MPEG Audio
Версия формата : Version 1
Профиль формата : Layer 3
Режим : Joint stereo
Идентификатор кодека : A_MPEG/L3
Идентификатор кодека/Подсказка : MP3
Продолжительность : 1 ч. 41 м.
Вид битрейта : Постоянный
Битрейт : 320 Кбит/сек
Каналы : 2 канала
Частота : 48,0 КГц
Метод сжатия : С потерями
Размер потока : 231 Мбайт (10%)
Заголовок : AVO (Goblin) censored
Язык : Russian
Default : Нет
Forced : Нет
Аудио #3
Идентификатор : 4
Формат : AC-3
Формат/Информация : Audio Coding 3
Расширение режима : CM (complete main)
Параметр Endianness формата : Big
Идентификатор кодека : A_AC3
Продолжительность : 1 ч. 41 м.
Вид битрейта : Постоянный
Битрейт : 448 Кбит/сек
Каналы : 6 каналов
Расположение каналов : Front: L C R, Side: L R, LFE
Частота : 48,0 КГц
Частота кадров : 31,250 кадров/сек (1536 spf)
Метод сжатия : С потерями
Размер потока : 324 Мбайт (15%)
Язык : English
Default : Нет
Forced : Нет
Текст #1
Идентификатор : 5
Формат : UTF-8
Идентификатор кодека : S_TEXT/UTF8
Идентификатор кодека/Информация : UTF-8 Plain Text
Заголовок : Full
Язык : English
Default : Нет
Forced : Нет
Текст #2
Идентификатор : 6
Формат : UTF-8
Идентификатор кодека : S_TEXT/UTF8
Идентификатор кодека/Информация : UTF-8 Plain Text
Заголовок : SDH
Язык : English
Default : Нет
Forced : Нет
Меню
00:00:00.000 : en:00:00:00.000
00:11:52.420 : en:00:11:52.420
00:24:36.308 : en:00:24:36.308
00:42:01.060 : en:00:42:01.060
00:57:28.403 : en:00:57:28.403
01:12:08.157 : en:01:12:08.157
01:27:54.853 : en:01:27:54.853
01:35:18.880 : en:01:35:18.880
Трейлер
Download / Скачать

Хотите скачать бесплатно? Зарегистрируйтесь на сайте (ссылка на регистрацию). Pirat.ca - самый быстрый торрент трекер в рунете!

Как скачивать  ·   Что такое торрент  ·   Рейтинг и ограничения

Кристина119

Гроза морей

Пост 03-Янв-2018 15:51 (спустя 5 часов)

[Q] 

Посмотрим как там Стифлер мочит Лови бочку
[Профиль]  [ЛС] 

qwers1

Шкипер

Пост 03-Янв-2018 23:44 (спустя 7 часов)

[Q] 

На любителя,за пару дней сняли сей шедевр,сложилось такое впечатление.
[Профиль]  [ЛС] 

msss

Корсар

Пост 04-Янв-2018 23:04 (спустя 23 часа)

[Q] 

Нужно быть готовым к сортирному юмору, хотя от фильма со стифлером(или как его там?) другого и не ожидаешь. На троечку от нечего делать.
[Профиль]  [ЛС] 

a s d

Морской Волк

1

Пост 08-Янв-2018 13:46 (спустя 3 дня)

[Q] 

так себе фильмец, время убить.
Автору респект!!!
[Профиль]  [ЛС] 

feldorius

Корсар

Пост 18-Янв-2018 17:49 (спустя 10 дней)

[Q] 

Почитал комменты и решил подождать хорошую озвучку.
[Профиль]  [ЛС] 

Пост 09-Фев-2018 16:50 (спустя 21 день)

Топик был перенесен из форума Новинки (HD|DVD|BD| TV|SAT|PDTV| - Rips) в форум Фильмы 2010 - 2017 г.г.
aleksey99
 
Показать сообщения:    
Ответить на тему

Текущее время: Сегодня 04:32

Часовой пояс: GMT + 4



Вы не можете начинать темы
Вы не можете отвечать на сообщения
Вы не можете редактировать свои сообщения
Вы не можете удалять свои сообщения
Вы не можете голосовать в опросах
Вы не можете прикреплять файлы к сообщениям
Вы не можете скачивать файлы

Майнать ▼