Уважаемый Гость!
Вы можете поддержать проект и зарегистрироваться у наших партнеров - онлайн-стратегия MyLands. При регистрации в игре Вы получите код, который сможете активировать после регистрации на pirat.ca и получить 1000 дублонов.

Ваш код:
d62c2061c455718593c6a114ac2516fc9ed57c9f
 
     

Удача Логана / Logan Lucky (Стивен Содерберг / Steven Soderbergh) [2017 г., комедия, криминал, BDRip-AVC] Dub [iTunes] + Original (Eng) + Sub (Eng)

Ответить на тему
 
Автор
Сообщение

Пост 03-Янв-2018 10:26

[Q] 

aleksey99

--Удача Логана / Logan Lucky--«See How The Other Half Steals»-- Производство: США / Free Association, Trans-Radial Pictures
Год выпуска: 2017 г.
Жанр: комедия, криминал
Продолжительность: 01:59:03--Мировая премьера: 7 августа 2017
Российская премьера: 7 сентября 2017, «Capella Film», «WDSSPR»
Цифровой релиз: 05 декабря 2017, «Sony Pictures Home Entertainment»--Перевод: Профессиональный (полное дублирование) [iTunes]
Оригинальный аудиопоток: английский--Режиссер: Стивен Содерберг / Steven Soderbergh--В ролях: Дэниэл Крэйг, Ченнинг Татум, Адам Драйвер, Сет МакФарлейн, Себастьян Стэн, Кэти Холмс, Хилари Суэнк, Райли Кио, Фаррах Маккензи, Джим О Хейр--Описание: Уволили с работы? Подготовь самое дерзкое ограбление в истории! Джимми Логан молниеносно подбирает команду «специалистов», способных на такую аферу, и надеется выйти сухим из воды. Будь как Логан!-- --Качество видео: BDRip-AVC
Контейнер: MKV
Видео кодек: AVC/H.264
Аудио кодек: AC3
Видео: AVC, 1024x428 (2.40:1), 1725 kbps, 23,976 fps, 0.164 bit/pixel
Аудио 1: 48 kHz, AC3 Dolby Digital, 3/2 (L,C,R,l,r) + LFE ch, ~384 kbps RUS
Аудио 2: 48 kHz, AC3 Dolby Digital, 3/2 (L,C,R,l,r) + LFE ch, ~448 kbps ENG
Cубтитры: английские (Full), английские (SDH), английские (SDH-Colored).
Общее
Уникальный идентификатор : 192734310511186332299262883154082043329 (0x90FF472A83148D01B4CBFDD6C3CA95C1)
Полное имя : H:\Torrent2\Udacha.Logana.2017.DUAL.BDRip.x264.mkv
Формат : Matroska
Версия формата : Version 4 / Version 2
Размер файла : 2,13 Гбайт
Продолжительность : 1 ч. 59 м.
Общий поток : 2559 Кбит/сек
Название фильма : Logan Lucky (2017)
Дата кодирования : UTC 2017-12-07 04:00:15
Программа кодирования : mkvmerge v5.9.0 ('On The Loose') built on Dec 15 2012 16:39:58
Библиотека кодирования : libebml v1.3.0 + libmatroska v1.4.0
Видео
Идентификатор : 1
Формат : AVC
Формат/Информация : Advanced Video Codec
Профиль формата : [email protected]
Параметр CABAC формата : Да
Параметр ReFrames формата : 12 кадров
Идентификатор кодека : V_MPEG4/ISO/AVC
Продолжительность : 1 ч. 59 м.
Битрейт : 1725 Кбит/сек
Ширина : 1024 пикселя
Высота : 428 пикселей
Соотношение сторон : 2,40:1
Режим частоты кадров : Постоянный
Частота кадров : 23,976 (24000/1001) кадра/сек
Цветовое пространство : YUV
Субдискретизация насыщенности : 4:2:0
Битовая глубина : 8 бит
Тип развёртки : Прогрессивная
Бит/(Пиксели*Кадры) : 0.164
Размер потока : 1,39 Гбайт (65%)
Заголовок : potroks
Библиотека кодирования : x264 core 152 r2851M ba24899
Настройки программы : cabac=1 / ref=12 / deblock=1:-1:-1 / analyse=0x3:0x132 / me=umh / subme=11 / psy=1 / psy_rd=1.00:0.10 / mixed_ref=1 / me_range=48 / chroma_me=1 / trellis=2 / 8x8dct=1 / cqm=0 / deadzone=21,11 / fast_pskip=0 / chroma_qp_offset=-3 / threads=9 / lookahead_threads=2 / sliced_threads=0 / nr=0 / decimate=0 / interlaced=0 / bluray_compat=0 / constrained_intra=0 / bframes=13 / b_pyramid=2 / b_adapt=2 / b_bias=0 / direct=3 / weightb=1 / open_gop=0 / weightp=2 / keyint=240 / keyint_min=23 / scenecut=40 / intra_refresh=0 / rc_lookahead=0 / rc=2pass / mbtree=0 / bitrate=1725 / ratetol=1.0 / qcomp=0.70 / qpmin=0 / qpmax=69 / qpstep=4 / cplxblur=20.0 / qblur=0.5 / vbv_maxrate=50000 / vbv_bufsize=35714 / nal_hrd=none / filler=0 / ip_ratio=1.40 / pb_ratio=1.30 / aq=2:0.80
Язык : English
Default : Да
Forced : Нет
Аудио #1
Идентификатор : 2
Формат : AC-3
Формат/Информация : Audio Coding 3
Расширение режима : CM (complete main)
Параметр Endianness формата : Big
Идентификатор кодека : A_AC3
Продолжительность : 1 ч. 59 м.
Вид битрейта : Постоянный
Битрейт : 384 Кбит/сек
Каналы : 6 каналов
Расположение каналов : Front: L C R, Side: L R, LFE
Частота : 48,0 КГц
Частота кадров : 31,250 кадров/сек (1536 spf)
Метод сжатия : С потерями
Размер потока : 327 Мбайт (15%)
Заголовок : Dub | DD 5.1 @ 384 kbps - iTunes
Язык : Russian
Default : Да
Forced : Нет
Аудио #2
Идентификатор : 3
Формат : AC-3
Формат/Информация : Audio Coding 3
Расширение режима : CM (complete main)
Параметр Endianness формата : Big
Идентификатор кодека : A_AC3
Продолжительность : 1 ч. 59 м.
Вид битрейта : Постоянный
Битрейт : 448 Кбит/сек
Каналы : 6 каналов
Расположение каналов : Front: L C R, Side: L R, LFE
Частота : 48,0 КГц
Частота кадров : 31,250 кадров/сек (1536 spf)
Метод сжатия : С потерями
Размер потока : 381 Мбайт (18%)
Заголовок : Original | DD 5.1 @ 448 kbps
Язык : English
Default : Нет
Forced : Нет
Текст #1
Идентификатор : 4
Формат : UTF-8
Идентификатор кодека : S_TEXT/UTF8
Идентификатор кодека/Информация : UTF-8 Plain Text
Заголовок : Full
Язык : English
Default : Нет
Forced : Нет
Текст #2
Идентификатор : 5
Формат : UTF-8
Идентификатор кодека : S_TEXT/UTF8
Идентификатор кодека/Информация : UTF-8 Plain Text
Заголовок : SDH
Язык : English
Default : Нет
Forced : Нет
Текст #3
Идентификатор : 6
Формат : UTF-8
Идентификатор кодека : S_TEXT/UTF8
Идентификатор кодека/Информация : UTF-8 Plain Text
Заголовок : SDH-Colored
Язык : English
Default : Нет
Forced : Нет
Меню
00:00:00.000 : :Jimmy and Sadie
00:05:41.800 : :Mellie at her salon
00:07:33.203 : :At Bobbie Jo's home
00:10:40.932 : :Jimmy and Clyde meet Max at the bar
00:16:24.025 : :Cauliflower: planning the heist
00:21:23.282 : :Joe Bang
00:29:08.747 : :The Bang Brothers
00:36:03.703 : :Sylvia
00:41:49.424 : :Changing the date; Gleema
00:47:11.078 : :Race Day
00:50:08.881 : :Joe Bang gets sick
00:54:40.527 : :Prison "riot"
00:57:27.152 : :Driving to the race
00:59:16.470 : :Race broadcast; Dayton White
01:04:37.290 : :"America the Beautiful," LeAnn Rimes
01:07:27.877 : :Joe talks sience in the tube room
01:12:12.995 : :Sucking in the money (and other things)
01:17:50.249 : :Dayton's Operating System
01:19:20.422 : :Evading the CMS police
01:24:02.913 : :Going home; "Storm Warning"
01:28:33.099 : :Sadie's performance
01:32:41.514 : :The next morning; the FBI arrives
01:42:27.433 : :Joe leaves prison
01:46:07.653 : :"Fortunate Son"
01:50:50.936 : :Bobbie Jo's new home
01:54:55.263 : :End titles
Трейлер
Download / Скачать

Хотите скачать бесплатно? Зарегистрируйтесь на сайте (ссылка на регистрацию). Pirat.ca - самый быстрый торрент трекер в рунете!

Как скачивать  ·   Что такое торрент  ·   Рейтинг и ограничения

TriToN_S

Шкипер

Пост 21-Янв-2018 13:12 (спустя 18 дней)

[Q] 

Спасибо! Автору респект!!! Лови бочку
[Профиль]  [ЛС] 

a s d

Морской Волк

1

Пост 21-Янв-2018 17:25 (спустя 4 часа)

[Q] 

Спасибо!!! .... Автору респект!!!
[Профиль]  [ЛС] 

msss

Корсар

Пост 21-Янв-2018 20:04 (спустя 2 часа 39 минут)

[Q] 

Первую половина фильма нужно осилить, а вторая затягивает, проходной кинчик. Спасибо!!!
[Профиль]  [ЛС] 

AirPower

Корсар

Пост 21-Янв-2018 23:18 (спустя 3 часа)

[Q] 

Неплохой фильм, стоит качать. Спасибо!!!
[Профиль]  [ЛС] 

Пост 09-Фев-2018 16:50 (спустя 18 дней)

Топик был перенесен из форума Новинки (HD|DVD|BD| TV|SAT|PDTV| - Rips) в форум Фильмы 2010 - 2017 г.г.
aleksey99
 
Показать сообщения:    
Ответить на тему

Текущее время: Сегодня 21:12

Часовой пояс: GMT + 4



Вы не можете начинать темы
Вы не можете отвечать на сообщения
Вы не можете редактировать свои сообщения
Вы не можете удалять свои сообщения
Вы не можете голосовать в опросах
Вы не можете прикреплять файлы к сообщениям
Вы не можете скачивать файлы

▼ Вниз