мама! / mother! (Даррен Аронофски / Darren Aronofsky) [2017 г., ужасы, драма, триллер, BDRip-AVC] Dub [iTunes] + Original (Eng) + Sub (Rus, Eng)

Ответить на тему
 
Автор
Сообщение

Пост 04-Янв-2018 08:14

[Q] 

aleksey99

--мама! / mother!--«seeing is believing»-- Производство: США / Protozoa Pictures
Год выпуска: 2017 г.
Жанр: ужасы, драма, триллер
Продолжительность: 02:01:12--Мировая премьера: 5 сентября 2017
Российская премьера: 14 сентября 2017, «Централ Партнершип»
Цифровой релиз: 06 декабря 2017, «Paramount»--Перевод: Профессиональный (полное дублирование) [iTunes]
Оригинальный аудиопоток: английский--Режиссер: Даррен Аронофски / Darren Aronofsky--В ролях: Дженнифер Лоуренс, Хавьер Бардем, Эд Харрис, Мишель Пфайффер, Брин Глисон, Донал Глисон, Йован Адепо, Патриция Саммерсетт, Эрик Дэвис--Описание: Отношения молодой пары оказываются под угрозой, когда, нарушая безмятежное существование супругов, в их дом заявляются незваные гости.-- --Качество видео: BDRip-AVC
Контейнер: MKV
Видео кодек: AVC/H.264
Аудио кодек: AC3
Видео: x264, 1152x482 (2.40:1) 23,976 fps, ~2520 kbps, 0.189 bit/pixel
Аудио 1: 48 kHz, AC3 Dolby Digital, 3/2 (L,C,R,l,r) + LFE ch, ~384 kbps RUS
Аудио 2: 48 kHz, AC3 Dolby Digital, 3/2 (L,C,R,l,r) + LFE ch, ~448 kbps ENG
Cубтитры: русские (полные), английские (полные).
Общее
Уникальный идентификатор : 238673779348755072111639399597532546440 (0xB38EE5DA12C16321BACA93AFFCD08588)
Полное имя : H:\Torrent2\Mother!.(2017).BDRip.x264.AFM.mkv
Формат : Matroska
Версия формата : Version 4 / Version 2
Размер файла : 2,90 Гбайт
Продолжительность : 2 ч. 1 м.
Общий поток : 3420 Кбит/сек
Название фильма : мама! / mother! (2017) :: AFM ::
Дата кодирования : UTC 2017-12-12 20:47:42
Программа кодирования : mkvmerge v8.3.0 ('Over the Horizon') 32bit
Библиотека кодирования : libebml v1.3.1 + libmatroska v1.4.2
Видео
Идентификатор : 1
Формат : AVC
Формат/Информация : Advanced Video Codec
Профиль формата : [email protected]
Параметр CABAC формата : Да
Параметр ReFrames формата : 11 кадров
Идентификатор кодека : V_MPEG4/ISO/AVC
Продолжительность : 2 ч. 1 м.
Битрейт : 2520 Кбит/сек
Ширина : 1152 пикселя
Высота : 482 пикселя
Соотношение сторон : 2,40:1
Режим частоты кадров : Постоянный
Частота кадров : 23,976 (24000/1001) кадра/сек
Цветовое пространство : YUV
Субдискретизация насыщенности : 4:2:0
Битовая глубина : 8 бит
Тип развёртки : Прогрессивная
Бит/(Пиксели*Кадры) : 0.189
Размер потока : 2,13 Гбайт (74%)
Заголовок : BDRip by AFM
Библиотека кодирования : x264 core 152 r2851+45 9658d1a 7mod [[email protected] X86_64]
Настройки программы : cabac=1 / ref=11 / deblock=1:-3:-2 / analyse=0x3:0x133 / me=umh / subme=10 / psy=1 / fade_compensate=0.00 / psy_rd=1.00:0.00 / mixed_ref=1 / me_range=32 / chroma_me=0 / trellis=2 / 8x8dct=1 / cqm=0 / deadzone=21,11 / fast_pskip=0 / chroma_qp_offset=-2 / threads=6 / lookahead_threads=1 / sliced_threads=0 / nr=0 / decimate=1 / interlaced=0 / bluray_compat=0 / constrained_intra=0 / fgo=0 / bframes=15 / b_pyramid=2 / b_adapt=2 / b_bias=0 / direct=1 / weightb=1 / open_gop=0 / weightp=2 / keyint=240 / keyint_min=23 / scenecut=40 / intra_refresh=0 / rc_lookahead=90 / rc=crf / mbtree=0 / crf=19.6000 / qcomp=0.65 / qpmin=0:0:0 / qpmax=69:69:69 / qpstep=4 / vbv_maxrate=50000 / vbv_bufsize=62500 / crf_max=0.0 / nal_hrd=none / filler=0 / ip_ratio=1.35 / pb_ratio=1.25 / aq=4:0.80 / aq-sensitivity=10.00 / aq-factor=1.00:1.00:1.00 / aq2=0 / aq3=0 / zones=167780,174347,q=30
Язык : English
Default : Да
Forced : Нет
Аудио #1
Идентификатор : 2
Формат : AC-3
Формат/Информация : Audio Coding 3
Расширение режима : CM (complete main)
Параметр Endianness формата : Big
Идентификатор кодека : A_AC3
Продолжительность : 2 ч. 1 м.
Вид битрейта : Постоянный
Битрейт : 384 Кбит/сек
Каналы : 6 каналов
Расположение каналов : Front: L C R, Side: L R, LFE
Частота : 48,0 КГц
Частота кадров : 31,250 кадров/сек (1536 spf)
Метод сжатия : С потерями
Размер потока : 333 Мбайт (11%)
Заголовок : Dub, AC3 5.1 ~384 kbps
Язык : Russian
Default : Да
Forced : Нет
Аудио #2
Идентификатор : 3
Формат : AC-3
Формат/Информация : Audio Coding 3
Расширение режима : CM (complete main)
Параметр Endianness формата : Big
Идентификатор кодека : A_AC3
Продолжительность : 2 ч. 1 м.
Вид битрейта : Постоянный
Битрейт : 448 Кбит/сек
Каналы : 6 каналов
Расположение каналов : Front: L C R, Side: L R, LFE
Частота : 48,0 КГц
Частота кадров : 31,250 кадров/сек (1536 spf)
Метод сжатия : С потерями
Размер потока : 388 Мбайт (13%)
Заголовок : Original, AC3 5.1 ~448 kbps
Язык : English
Default : Нет
Forced : Нет
Текст #1
Идентификатор : 4
Формат : UTF-8
Идентификатор кодека : S_TEXT/UTF8
Идентификатор кодека/Информация : UTF-8 Plain Text
Язык : Russian
Default : Нет
Forced : Нет
Текст #2
Идентификатор : 5
Формат : UTF-8
Идентификатор кодека : S_TEXT/UTF8
Идентификатор кодека/Информация : UTF-8 Plain Text
Язык : English
Default : Нет
Forced : Нет
Меню
00:00:00.000 : en:00:00:00.000
00:06:22.507 : en:00:06:22.507
00:10:21.079 : en:00:10:21.079
00:15:59.500 : en:00:15:59.500
00:21:37.922 : en:00:21:37.922
00:24:59.415 : en:00:24:59.415
00:31:31.056 : en:00:31:31.056
00:38:29.224 : en:00:38:29.224
00:44:57.028 : en:00:44:57.028
00:49:35.764 : en:00:49:35.764
00:53:43.303 : en:00:53:43.303
01:02:19.694 : en:01:02:19.694
01:08:24.809 : en:01:08:24.809
01:16:52.191 : en:01:16:52.191
01:20:30.909 : en:01:20:30.909
01:28:26.885 : en:01:28:26.885
01:38:08.716 : en:01:38:08.716
01:45:52.638 : en:01:45:52.638
01:49:48.624 : en:01:49:48.624
01:56:21.183 : en:01:56:21.183
Трейлер
Download / Скачать

Хотите скачать бесплатно? Зарегистрируйтесь на сайте (ссылка на регистрацию). Pirat.ca - самый быстрый торрент трекер в рунете!

Как скачивать  ·   Что такое торрент  ·   Рейтинг и ограничения

Deniath

Лоцман

Пост 04-Янв-2018 14:59 (спустя 6 часов)

[Q] 

это потеря 2х часов жизни ) всё ждал чем же это муть закончится :)
[Профиль]  [ЛС] 

avelinio

Штурман

Пост 04-Янв-2018 17:22 (спустя 2 часа 22 минуты)

[Q] 

815989это потеря 2х часов жизни ) всё ждал чем же это муть закончится :)
Спасибо комрад за предостережение! А в чем там суть-то?
[Профиль]  [ЛС] 

Apostle358

Корсар

168

Пост 04-Янв-2018 17:35 (спустя 13 минут)

[Q] 

Бесподобный Антон Сигур в таком фильме? Обязательно посмотрю и отпишусь. Скорее всего это кино из раздела "не для всех".
[Профиль]  [ЛС] 

Полтос

Гроза морей

Пост 04-Янв-2018 18:34 (спустя 58 минут)

[Q] 

Согласен с Deniath. По началу была интересная завязка в стиле "Незнакомцы". Но далее при просмотре складывается ощущение, что режиссёр пережрал галюцинагенов, из-за чего по началу неплохой триллер скатился к театру абсурда и абстрактному трэшу. Смысл выбора между любовью и упоением любовью к себе - остался за кадром.
На любителя Трафик потрачен зря!

_________________
Первый закон Прапорщика: Всё что поднимаемо - относительно!)
[Профиль]  [ЛС] 

servet3000

Лоцман

Пост 05-Янв-2018 23:49 (спустя 1 день 5 часов)

[Q] 

Такой маразм мог придумать только психически маразматичный неадекват...
[Профиль]  [ЛС] 

feldorius

Корсар

Пост 05-Янв-2018 23:57 (спустя 8 минут)

[Q] 

Уважаемые комментаторы, благодарю за экономию моего времени!
Не буду качать.
[Профиль]  [ЛС] 

Artem39

Лоцман

Пост 08-Янв-2018 19:54 (спустя 2 дня 19 часов)

[Q] 

Не качать, редкостное говно
[Профиль]  [ЛС] 

Пост 09-Фев-2018 16:50 (спустя 1 месяц)

Топик был перенесен из форума Новинки (HD|DVD|BD| TV|SAT|PDTV| - Rips) в форум Фильмы 2010 - 2017 г.г.
aleksey99
 
Показать сообщения:    
Ответить на тему

Текущее время: Сегодня 01:06

Часовой пояс: GMT + 4



Вы не можете начинать темы
Вы не можете отвечать на сообщения
Вы не можете редактировать свои сообщения
Вы не можете удалять свои сообщения
Вы не можете голосовать в опросах
Вы не можете прикреплять файлы к сообщениям
Вы не можете скачивать файлы

Майнать ▼