Убить за лайк / Tragedy Girls (Тайлер МакИнтайр / Tyler MacIntyre) [2017 г., ужасы, комедия, WEB-DLRip] Dub [iTunes]

Ответить на тему
 
Автор
Сообщение

Пост 05-Янв-2018 07:58

[Q] 

aleksey99

--Убить за лайк / Tragedy Girls--«Поставь лайк или дизлайк»-- Производство: США / It's The Comeback Kids, New Artist Pictures
Год выпуска: 2017 г.
Жанр: ужасы, комедия
Продолжительность: 01:38:12--Мировая премьера: 12 марта 2017
Российская премьера: 2 ноября 2017, «Cinema Prestige»
Цифровой релиз: 05 января 2018, «Cinema Prestige»--Перевод: Профессиональный (полное дублирование) [iTunes]--Режиссер: Тайлер МакИнтайр / Tyler MacIntyre--В ролях: Джош Хатчерсон, Брианна Хилдебранд, Кевин Дюран, Никки Уилан, Крэйг Робинсон, Александра Шипп, Розалинд Чао, Джек Куэйд, Остин Абрамс, Тимоти В. Мерфи--Описание: Две подружки-старшеклассницы одержимы мечтой стать звездами социальных сетей. Но, как известно, хорошими делами прославиться нельзя. Поэтому они заводят блог «Кошмарные девчонки», в котором смачно комментируют трагедии и несчастные случаи, происходящие в их городке. Количество подписчиков растет, но для новых лайков требуются новые кровавые репортажи. Амбициозные девушки, ощущая острую нехватку материала, принимаются убивать всех, кто мешает им по жизни, совмещая «приятное» с «полезным»…-- --Качество видео: WEB-DLRip
Контейнер: AVI
Видео кодек: XviD
Аудио кодек: AC3
Видео: 720x304 (2.37:1), 24 fps, XviD build 50 ~1730 kbps avg, 0.33 bit/pixel
Аудио: 48 kHz, AC3 Dolby Digital, 3/2 (L,C,R,l,r) + LFE ch, ~384 kbps
Cубтитры: отсутствуют.
Общее
Полное имя : H:\Torrent2\y61t.3a.La1k.2O17.D.WeB-DLRip.14OOMB.avi
Формат : AVI
Формат/Информация : Audio Video Interleave
Размер файла : 1,46 Гбайт
Продолжительность : 1 ч. 38 м.
Общий поток : 2124 Кбит/сек
Название фильма : y61t.3a.La1k.2O17.D.WeB-DLRip.14OOMB
Программа кодирования : VirtualDubMod 1.5.10.2 (build 2540/release)
Формат оригинала/Имя : Movie
Видео
Идентификатор : 0
Формат : MPEG-4 Visual
Профиль формата : Advanced [email protected]
Параметр BVOP формата : 2
Параметр QPel формата : Нет
Параметр GMC формата : Без точки перехода
Параметр матрицы формата : Default (MPEG)
Идентификатор кодека : XVID
Идентификатор кодека/Подсказка : XviD
Продолжительность : 1 ч. 38 м.
Битрейт : 1731 Кбит/сек
Ширина : 720 пикселей
Высота : 304 пикселя
Соотношение сторон : 2,35:1
Частота кадров : 24,000 кадра/сек
Цветовое пространство : YUV
Субдискретизация насыщенности : 4:2:0
Битовая глубина : 8 бит
Тип развёртки : Прогрессивная
Метод сжатия : С потерями
Бит/(Пиксели*Кадры) : 0.329
Размер потока : 1,19 Гбайт (81%)
Библиотека кодирования : XviD 1.2.1 (UTC 2008-12-04)
Аудио
Идентификатор : 1
Формат : AC-3
Формат/Информация : Audio Coding 3
Расширение режима : CM (complete main)
Параметр Endianness формата : Big
Идентификатор кодека : 2000
Продолжительность : 1 ч. 38 м.
Вид битрейта : Постоянный
Битрейт : 384 Кбит/сек
Каналы : 6 каналов
Расположение каналов : Front: L C R, Side: L R, LFE
Частота : 48,0 КГц
Частота кадров : 31,250 кадров/сек (1536 spf)
Метод сжатия : С потерями
Размер потока : 270 Мбайт (18%)
Выравнивание : Разделение по промежуткам
Продолжительность промежутка : 42 мс. (1,00 видеокадр)
Время предзагрузки промежутка : 500 мс.
Трейлер
Download / Скачать

Хотите скачать бесплатно? Зарегистрируйтесь на сайте (ссылка на регистрацию). Pirat.ca - самый быстрый торрент трекер в рунете!

Как скачивать  ·   Что такое торрент  ·   Рейтинг и ограничения

LEXo

Штурман

Пост 06-Янв-2018 14:20 (спустя 1 день 6 часов)

[Q] 

Да можно разок, строго с крепким спиртным!

_________________
Волка ноги кормят.
[Профиль]  [ЛС] 

clark

Флибустьер

Пост 06-Янв-2018 22:27 (спустя 8 часов)

[Q] 

спасибо глянем!!!!

_________________
Последним смеётся тот, кто стреляет первым.
[Профиль]  [ЛС] 

Кристина119

Гроза морей

Пост 06-Янв-2018 22:58 (спустя 30 минут)

[Q] 

Что тут скажешь...Оторвы) Лови бочку
[Профиль]  [ЛС] 

qwers1

Шкипер

Пост 06-Янв-2018 23:22 (спустя 23 минуты)

[Q] 

Первые минуты черной комедии на отлично,далее вообще ни как ,выключил на 30-й минуте...даже под пиво.
[Профиль]  [ЛС] 

zmaksimz

Корсар

Пост 09-Янв-2018 14:03 (спустя 2 дня 14 часов)

[Q] 

Не, бредятина полная...
[Профиль]  [ЛС] 

lexaspirit

Пост 14-Янв-2018 23:03 (спустя 5 дней)

[Q] 

Задумка прикольная, но режиссер ее реализовал отвратительно. В итоге фильм скучный и нудный

_________________
-------------------- ----------------------
[Профиль]  [ЛС] 

Пост 09-Фев-2018 16:50 (спустя 25 дней)

Топик был перенесен из форума Новинки (HD|DVD|BD| TV|SAT|PDTV| - Rips) в форум Фильмы 2010 - 2017 г.г.
aleksey99
 
Показать сообщения:    
Ответить на тему

Текущее время: Сегодня 01:12

Часовой пояс: GMT + 4



Вы не можете начинать темы
Вы не можете отвечать на сообщения
Вы не можете редактировать свои сообщения
Вы не можете удалять свои сообщения
Вы не можете голосовать в опросах
Вы не можете прикреплять файлы к сообщениям
Вы не можете скачивать файлы

Майнать ▼