Уважаемый Гость!
Вы можете поддержать проект и зарегистрироваться у наших партнеров - онлайн-стратегия MyLands. При регистрации в игре Вы получите код, который сможете активировать после регистрации на pirat.ca и получить 1000 дублонов.

Ваш код:
682fda369db314ffc3bf18d836fce8f4c6b7be8f
 
     

Яркость / Bright (Дэвид Эйр / David Ayer) [2017 г., фантастика, фэнтези, боевик, триллер, криминал, WEBRip-AVC] MVO [BaibaKo]

Ответить на тему
 
Автор
Сообщение

Пост 05-Янв-2018 08:55

[Q] 

aleksey99

--Яркость / Bright-- Производство: США / NetFlix, Overbrook Entertainment
Год выпуска: 2017 г.
Жанр: фантастика, фэнтези, боевик, триллер, криминал
Продолжительность: 01:57:46--Мировая премьера: 22 декабря 2017--Перевод: многоголосый, закадровый [BaibaKo]--Режиссер: Дэвид Эйр / David Ayer--В ролях: Уилл Смит, Нуми Рапас, Джоэл Эдгертон, Люси Фрай, Джей Эрнандес, Эдгар Рамирес, Айк Баринхолц, Вероника Нго, Хэппи Андерсон, Брэд Уильям Хенке--Описание: Действие разворачивается в Лос-Анджелесе, в вымышленном фантастическом мире, где царствуют не только высокие технологии, но и магия. В городе бок о бок с людьми живут эльфы, орки и другие сверхъестественные существа. Главный герой служит в полицейском департаменте, в специальном отделе, занимающимся раскрытием преступлений, в которых замешаны магические силы. Пытаясь раскрыть очередное дело, он вынужден объединиться с орком. Вместе им предстоит найти и защитить древний мистический артефакт, обладающий могущественными способностями, от рук злоумышленников.-- --Качество видео: WEBRip-AVC
Контейнер: MKV
Видео кодек: AVC/H.264
Аудио кодек: AC3
Видео: MPEG-4 AVC, 984x410 (2.40:1), 24.000 fps, ~1386 kbps avg, 0.143 bit/pixel
Аудио: 48 kHz, AC3 Dolby Digital, 3/2 (L,C,R,l,r) + LFE ch, ~384 kbps
Cубтитры: отсутствуют.
Общее
Уникальный идентификатор : 238966546960482837347891025780199858196 (0xB3C74868D8360C0B80E7EEB652332014)
Полное имя : H:\Torrent2\Яркость (2017) WEBRip-AVC_ivanes20031987.mkv
Формат : Matroska
Версия формата : Version 2
Размер файла : 1,46 Гбайт
Продолжительность : 1 ч. 57 м.
Общий поток : 1771 Кбит/сек
Дата кодирования : UTC 2017-12-24 08:06:04
Программа кодирования : mkvmerge v4.4.0 ('Die Wiederkehr') сборка от Jan 3 2011 21:40:45
Библиотека кодирования : libebml v1.0.0 + libmatroska v1.0.0
Обложка : Yes
Attachments : cover.jpg
Видео
Идентификатор : 1
Формат : AVC
Формат/Информация : Advanced Video Codec
Профиль формата : [email protected]
Параметр CABAC формата : Да
Параметр ReFrames формата : 14 кадров
Идентификатор кодека : V_MPEG4/ISO/AVC
Продолжительность : 1 ч. 57 м.
Битрейт : 1386 Кбит/сек
Ширина : 984 пикселя
Высота : 410 пикселей
Соотношение сторон : 2,40:1
Режим частоты кадров : Постоянный
Частота кадров : 24,000 кадра/сек
Цветовое пространство : YUV
Субдискретизация насыщенности : 4:2:0
Битовая глубина : 8 бит
Тип развёртки : Прогрессивная
Бит/(Пиксели*Кадры) : 0.143
Размер потока : 1,11 Гбайт (76%)
Библиотека кодирования : x264 core 152 r2851kMod ba24899
Настройки программы : cabac=1 / ref=14 / deblock=1:-1:-1 / analyse=0x3:0x133 / me=umh / subme=10 / psy=1 / fade_compensate=0.00 / psy_rd=1.00:0.00 / mixed_ref=1 / me_range=32 / chroma_me=1 / trellis=2 / 8x8dct=1 / cqm=0 / deadzone=21,11 / fast_pskip=0 / chroma_qp_offset=-2 / threads=13 / lookahead_threads=3 / sliced_threads=0 / nr=0 / decimate=0 / interlaced=0 / bluray_compat=0 / constrained_intra=0 / bframes=14 / b_pyramid=2 / b_adapt=2 / b_bias=0 / direct=1 / weightb=1 / open_gop=0 / weightp=2 / keyint=240 / keyint_min=24 / scenecut=40 / intra_refresh=0 / rc_lookahead=90 / rc=2pass / mbtree=0 / bitrate=1386 / ratetol=1.0 / qcomp=0.60 / qpmin=0 / qpmax=69 / qpstep=4 / cplxblur=20.0 / qblur=0.5 / vbv_maxrate=50000 / vbv_bufsize=62500 / nal_hrd=none / filler=0 / ip_ratio=1.40 / pb_ratio=1.30 / aq=1:1.00
Default : Да
Forced : Нет
Аудио
Идентификатор : 2
Формат : AC-3
Формат/Информация : Audio Coding 3
Расширение режима : CM (complete main)
Параметр Endianness формата : Big
Идентификатор кодека : A_AC3
Продолжительность : 1 ч. 57 м.
Вид битрейта : Постоянный
Битрейт : 384 Кбит/сек
Каналы : 6 каналов
Расположение каналов : Front: L C R, Side: L R, LFE
Частота : 48,0 КГц
Частота кадров : 31,250 кадров/сек (1536 spf)
Метод сжатия : С потерями
Размер потока : 323 Мбайт (22%)
Заголовок : BaibaKo
Язык : Russian
Default : Да
Forced : Нет
Трейлер
Download / Скачать

Хотите скачать бесплатно? Зарегистрируйтесь на сайте (ссылка на регистрацию). Pirat.ca - самый быстрый торрент трекер в рунете!

Как скачивать  ·   Что такое торрент  ·   Рейтинг и ограничения

левка

Корсар

Пост 06-Янв-2018 00:20 (спустя 15 часов)

[Q] 

спасибо! Супер! !!перевод порадовал Спасибо!!!
[Профиль]  [ЛС] 

rsel

Морской Волк

Пост 06-Янв-2018 21:55 (спустя 21 час)

[Q] 

Что то не особо впечатлил... из 10 дал бы балла 4, не больше. Видимо не та возрастная категория у меня уже
[Профиль]  [ЛС] 

Darmstadium

Штурман

Пост 12-Янв-2018 12:35 (спустя 5 дней)

[Q] 

Фильм слишком растянутый, но тем не менее, мне понравился. Сюжет более-менее очевидный и есть претензия к некоторым сюжетным моментам. А так, разок посмотреть вполне сойдёт.
P.s. напомнило атмосферу игрульки Shadowrun 2007 года.
[Профиль]  [ЛС] 

Alhimik

Шкипер

17

Пост 12-Янв-2018 12:37 (спустя 2 минуты)

[Q] 

Неужели и Уилл Смит стал во второсортных фильмах играть?! Явно не его уровень то, раньше был, по крайней мере.
[Профиль]  [ЛС] 

Sevasiy59

Пост 15-Янв-2018 00:25 (спустя 2 дня 11 часов)

[Q] 

А почему Ленин на постере? Кино про революцию?
[Профиль]  [ЛС] 

the_lame

Флибустьер

Пост 15-Янв-2018 20:29 (спустя 20 часов)

[Q] 

А мне понравилось - мрачное такое фэнтези без соплей
[Профиль]  [ЛС] 

Пост 09-Фев-2018 16:50 (спустя 24 дня)

Топик был перенесен из форума Новинки (HD|DVD|BD| TV|SAT|PDTV| - Rips) в форум Фильмы 2010 - 2017 г.г.
aleksey99
 
Показать сообщения:    
Ответить на тему

Текущее время: Сегодня 11:39

Часовой пояс: GMT + 4



Вы не можете начинать темы
Вы не можете отвечать на сообщения
Вы не можете редактировать свои сообщения
Вы не можете удалять свои сообщения
Вы не можете голосовать в опросах
Вы не можете прикреплять файлы к сообщениям
Вы не можете скачивать файлы

▼ Вниз