Уважаемый Гость!
Вы можете поддержать проект и зарегистрироваться у наших партнеров - онлайн-стратегия MyLands. При регистрации в игре Вы получите код, который сможете активировать после регистрации на pirat.ca и получить 1000 дублонов.

Ваш код:
d62c2061c455718593c6a114ac2516fc9ed57c9f
 
     

Убийство священного оленя / The Killing of a Sacred Deer (Йоргос Лантимос / Yorgos Lanthimos) [2017 г., ужасы, триллер, драма, детектив, WEB-DLRip] MVO [Paradox" & Omskbird records]

Ответить на тему
 
Автор
Сообщение

Пост 05-Янв-2018 18:31

[Q] 

aleksey99

--Убийство священного оленя / The Killing of a Sacred Deer-- Производство: Великобритания, Ирландия, США / Element Pictures, A24, Film4
Год выпуска: 2017 г.
Жанр: ужасы, триллер, драма, детектив
Продолжительность: 02:01:02--Мировая премьера: 22 мая 2017
Российская премьера: 15 февраля 2018, «A-One Films»--Перевод: Многоголосый, закадровый [Paradox" & Omskbird records]--Режиссер: Йоргос Лантимос / Yorgos Lanthimos--В ролях: Николь Кидман, Колин Фаррелл, Алисия Сильверстоун, Рэффи Кэссиди, Барри Кеоган, Билл Кэмп, Санни Сулджик, Дэнис Барон, Джозефина Элле, Лия Хаттон Бэсмур--Описание: Талантливый кардиохирург Стивен живет счастливой жизнью с женой Анной и двумя прелестными детьми. Этой семейной идиллии угрожает призрак из прошлого, которое Стивену больше не под силу скрывать.-- --Качество видео: WEB-DLRip
Контейнер: AVI
Видео кодек: XviD
Аудио кодек: AC3
Видео: 720x384 (1.88:1), 23.976 fps, XviD build 50 ~1419 kbps avg, 0.21 bit/pixel
Аудио: 48 kHz, AC3 Dolby Digital, 2/0 (L,R) ch, ~192 kbps
Cубтитры: отсутствуют.
Общее
Полное имя : H:\Torrent2\The Killing of a Sacred Deer.2017_Klayd X.avi
Формат : AVI
Формат/Информация : Audio Video Interleave
Размер файла : 1,37 Гбайт
Продолжительность : 2 ч. 1 м.
Общий поток : 1621 Кбит/сек
Название фильма : Rustorrents
Программа кодирования : VirtualDubMod 1.5.10.3 | www.virtualdub-fr.org || (build 2550/release)
Видео
Идентификатор : 0
Формат : MPEG-4 Visual
Профиль формата : Advanced [email protected]
Параметр BVOP формата : 1
Параметр QPel формата : Нет
Параметр GMC формата : Без точки перехода
Параметр матрицы формата : Выборочная
Идентификатор кодека : XVID
Идентификатор кодека/Подсказка : XviD
Продолжительность : 2 ч. 1 м.
Битрейт : 1419 Кбит/сек
Ширина : 720 пикселей
Высота : 384 пикселя
Соотношение сторон : 1,85:1
Частота кадров : 23,976 (23976/1000) кадра/сек
Цветовое пространство : YUV
Субдискретизация насыщенности : 4:2:0
Битовая глубина : 8 бит
Тип развёртки : Прогрессивная
Метод сжатия : С потерями
Бит/(Пиксели*Кадры) : 0.214
Размер потока : 1,20 Гбайт (88%)
Библиотека кодирования : XviD 1.2.1 (UTC 2008-12-04)
Аудио
Идентификатор : 1
Формат : AC-3
Формат/Информация : Audio Coding 3
Расширение режима : CM (complete main)
Параметр Endianness формата : Big
Идентификатор кодека : 2000
Продолжительность : 2 ч. 1 м.
Вид битрейта : Постоянный
Битрейт : 192 Кбит/сек
Каналы : 2 канала
Расположение каналов : Front: L R
Частота : 48,0 КГц
Частота кадров : 31,250 кадров/сек (1536 spf)
Метод сжатия : С потерями
Размер потока : 166 Мбайт (12%)
Выравнивание : Разделение по промежуткам
Продолжительность промежутка : 42 мс. (1,00 видеокадр)
Время предзагрузки промежутка : 500 мс.
Трейлер
Download / Скачать

Хотите скачать бесплатно? Зарегистрируйтесь на сайте (ссылка на регистрацию). Pirat.ca - самый быстрый торрент трекер в рунете!

Как скачивать  ·   Что такое торрент  ·   Рейтинг и ограничения

Кристина119

Гроза морей

Пост 05-Янв-2018 23:30 (спустя 4 часа)

[Q] 

Посмотрим, чего там стариканы наиграли Лови бочку
[Профиль]  [ЛС] 

Apostle358

Корсар

165

Пост 06-Янв-2018 13:12 (спустя 13 часов)

[Q] 

Ну и фильмец... Конечно неожиданный сюжет с такими актёрами. Фильм не для всех. 7.5/10
[Профиль]  [ЛС] 

clark

Корсар

Пост 06-Янв-2018 22:29 (спустя 9 часов)

[Q] 

спасибо посмотрим!!!

_________________
Последним смеётся тот, кто стреляет первым.
[Профиль]  [ЛС] 

ohhmes

Морской Волк

3

Пост 07-Янв-2018 02:16 (спустя 3 часа)

[Q] 

не прочитав аннотации сразу и не въедешь и даже в такой фильм сдвинутые америкосы дрочильню вставляют
[Профиль]  [ЛС] 

Wlad_UA

Штурман

Пост 08-Янв-2018 01:26 (спустя 23 часа)

[Q] 

Слов нет.... написали бы что арт-хаус, хоть как то бы воспринялось. Мысль конечно есть, но как сказал А.С. Галахвастов - "так зачем же " .....
[Профиль]  [ЛС] 

Пост 09-Фев-2018 16:50 (спустя 1 месяц 1 день)

Топик был перенесен из форума Новинки (HD|DVD|BD| TV|SAT|PDTV| - Rips) в форум Фильмы 2010 - 2017 г.г.
aleksey99
 
Показать сообщения:    
Ответить на тему

Текущее время: Сегодня 21:12

Часовой пояс: GMT + 4



Вы не можете начинать темы
Вы не можете отвечать на сообщения
Вы не можете редактировать свои сообщения
Вы не можете удалять свои сообщения
Вы не можете голосовать в опросах
Вы не можете прикреплять файлы к сообщениям
Вы не можете скачивать файлы

▼ Вниз