Уважаемый Гость!
Вы можете поддержать проект и зарегистрироваться у наших партнеров - онлайн-стратегия MyLands. При регистрации в игре Вы получите код, который сможете активировать после регистрации на pirat.ca и получить 1000 дублонов.

Ваш код:
682fda369db314ffc3bf18d836fce8f4c6b7be8f
 
     

Коматозники / Flatliners (Нильс Арден Оплев / Niels Arden Oplev) [2017 г., ужасы, фантастика, триллер, драма, BDRip] Dub [iTunes] + Sub (Rus)

Ответить на тему
 
Автор
Сообщение

Пост 07-Янв-2018 01:22

[Q] 

aleksey99

--Коматозники / Flatliners--«Перешёл черту? Будь готов к последствиям»-- Производство: США, Канада / Cross Creek Pictures, Furthur Films, Laurence Mark Productions, Screen Gems
Год выпуска: 2017 г.
Жанр: ужасы, фантастика, триллер, драма
Продолжительность: 01:49:46--Мировая премьера: 25 сентября 2017
Российская премьера: 23 ноября 2017, «WDSSPR»
Цифровой релиз: 07 января 2018, «Sony Pictures Home Entertainment»--Перевод: Профессиональный (полное дублирование) [iTunes]--Режиссер: Нильс Арден Оплев / Niels Arden Oplev--В ролях: Эллен Пейдж, Диего Луна, Нина Добрев, Джеймс Нортон, Кирси Клемонс, Кифер Сазерленд, Джейкоб Соли, Анна Арден Оплев, Мигель Энтони--Описание: Пятеро студентов-медиков, одержимых желанием узнать, что происходит с человеком после смерти, решаются на рискованный эксперимент: на время они останавливают друг другу сердце, чтобы погрузиться в состояние клинической смерти и на собственном опыте понять, что происходит с человеком по ту сторону. Но они забывают, что, переступив черту, нужно быть готовым к последствиям.-- --Качество видео: BDRip
Контейнер: AVI
Видео кодек: XviD
Аудио кодек: AC3
Видео: 720x304 (2.37:1), 23.976 fps, XviD build 73 ~1448 kbps avg, 0.28 bit/pixel
Аудио: 48 kHz, AC3 Dolby Digital, 3/2 (L,C,R,l,r) + LFE ch, ~384 kbps
Cубтитры: Русские форсированные (отдельно).
Общее
Полное имя : H:\Torrent2\Flatliners.2017.BDRip.1.41Gb\Flatliners.2017.BDRip.1.41Gb.avi
Формат : AVI
Формат/Информация : Audio Video Interleave
Размер файла : 1,41 Гбайт
Продолжительность : 1 ч. 49 м.
Общий поток : 1841 Кбит/сек
Программа кодирования : VirtualDubMod 1.5.10.2 (build 2540/release)
Библиотека кодирования : VirtualDubMod build 2540/release
Видео
Идентификатор : 0
Формат : MPEG-4 Visual
Профиль формата : Advanced [email protected]
Параметр BVOP формата : 1
Параметр QPel формата : Нет
Параметр GMC формата : Без точки перехода
Параметр матрицы формата : Выборочная
Идентификатор кодека : XVID
Идентификатор кодека/Подсказка : XviD
Продолжительность : 1 ч. 49 м.
Битрейт : 1448 Кбит/сек
Ширина : 720 пикселей
Высота : 304 пикселя
Соотношение сторон : 2,35:1
Частота кадров : 23,976 (24000/1001) кадра/сек
Цветовое пространство : YUV
Субдискретизация насыщенности : 4:2:0
Битовая глубина : 8 бит
Тип развёртки : Прогрессивная
Метод сжатия : С потерями
Бит/(Пиксели*Кадры) : 0.276
Размер потока : 1,11 Гбайт (79%)
Библиотека кодирования : XviD 73
Аудио
Идентификатор : 1
Формат : AC-3
Формат/Информация : Audio Coding 3
Расширение режима : CM (complete main)
Параметр Endianness формата : Big
Идентификатор кодека : 2000
Продолжительность : 1 ч. 49 м.
Вид битрейта : Постоянный
Битрейт : 384 Кбит/сек
Каналы : 6 каналов
Расположение каналов : Front: L C R, Side: L R, LFE
Частота : 48,0 КГц
Частота кадров : 31,250 кадров/сек (1536 spf)
Метод сжатия : С потерями
Размер потока : 301 Мбайт (21%)
Выравнивание : Разделение по промежуткам
Продолжительность промежутка : 42 мс. (1,00 видеокадр)
Время предзагрузки промежутка : 500 мс.
Общее
Полное имя : H:\Torrent2\Flatliners.2017.BDRip.1.41Gb\Flatliners.2017.BDRip.1.41Gb.srt
Формат : SubRip
Размер файла : 648 байт
Текст
Формат : SubRip
Метод сжатия : Без потерь
Трейлер
Download / Скачать

Хотите скачать бесплатно? Зарегистрируйтесь на сайте (ссылка на регистрацию). Pirat.ca - самый быстрый торрент трекер в рунете!

Как скачивать  ·   Что такое торрент  ·   Рейтинг и ограничения

Пост 09-Фев-2018 16:50 (спустя 1 месяц 2 дня)

Топик был перенесен из форума Новинки (HD|DVD|BD| TV|SAT|PDTV| - Rips) в форум Фильмы 2010 - 2017 г.г.
aleksey99
 
Показать сообщения:    
Ответить на тему

Текущее время: Сегодня 11:50

Часовой пояс: GMT + 4



Вы не можете начинать темы
Вы не можете отвечать на сообщения
Вы не можете редактировать свои сообщения
Вы не можете удалять свои сообщения
Вы не можете голосовать в опросах
Вы не можете прикреплять файлы к сообщениям
Вы не можете скачивать файлы

▼ Вниз