Виселица / Hangman (Джонни Мартин / Johnny Martin) [2017, триллер, криминал, детектив, WEB-DLRip] MVO [Paradox" & Omskbird records]

Ответить на тему
 
Автор
Сообщение

Пост 08-Янв-2018 12:54

[Q] 

aleksey99

--Виселица / Hangman-- Производство: США
Год выпуска: 2017 г.
Жанр: триллер, криминал, детектив
Продолжительность: 01:38:34--Мировая премьера: 24 ноября 2017--Перевод: Многоголосый, закадровый [Paradox" & Omskbird records]--Режиссер: Джонни Мартин / Johnny Martin--В ролях: Карл Урбан, Аль Пачино, Бриттани Сноу, Сара Шахи, Джо Андерсон, Жермен Риверс, Майкл Пападжон, Чили Рамос, Одесса Рэй, Стив Култер--Описание: Журналистка Кристи Дэвис пишет статью о работе полиции, сотрудничая с детективом Руни из отдела убийств. И в первый же день они оказываются на месте преступления — девушка повешена, а на груди у нее вырезана буква. А неподалеку в здании детектив Руни находит на стене игру в виселицу и вырезанные цифры, которые совпадают с номерами его жетона и полицейского в отставке, бывшего детектива Арчера. Пенсионер Арчер с охотой берется помогать в расследовании, когда становится ясно, что в городе орудует серийный убийца — на следующий день детективы находят ещё одного повешенного.-- --Качество видео: WEB-DLRip
Контейнер: AVI
Видео кодек: XviD
Аудио кодек: AC3
Видео: 720x304 (2.37:1), 23.976 fps, XviD build 73 ~1913 kbps avg, 0.36 bit/pixel
Аудио: 48 kHz, AC3 Dolby Digital, 2/0 (L,R) ch, ~192 kbps
Cубтитры: отсутствуют.
Общее
Полное имя : H:\Torrent2\Виселица_2017_WEB-DLRip_[1.45 GB].avi
Формат : AVI
Формат/Информация : Audio Video Interleave
Размер файла : 1,46 Гбайт
Продолжительность : 1 ч. 38 м.
Общий поток : 2115 Кбит/сек
Программа кодирования : VirtualDubMod 1.5.10.3 | www.virtualdub-fr.org || (build 2550/release)
Библиотека кодирования : VirtualDubMod build 2550/release
Видео
Идентификатор : 0
Формат : MPEG-4 Visual
Профиль формата : Advanced [email protected]
Настройки формата : BVOP1 / Custom Matrix
Параметр BVOP формата : 1
Параметр QPel формата : Нет
Параметр GMC формата : Без точки перехода
Параметр матрицы формата : Выборочная
Идентификатор кодека : XVID
Идентификатор кодека/Подсказка : XviD
Продолжительность : 1 ч. 38 м.
Битрейт : 1914 Кбит/сек
Ширина : 720 пикселей
Высота : 304 пикселя
Соотношение сторон : 2,35:1
Частота кадров : 23,976 (24000/1001) кадра/сек
Цветовое пространство : YUV
Субдискретизация насыщенности : 4:2:0
Битовая глубина : 8 бит
Тип развёртки : Прогрессивная
Метод сжатия : С потерями
Бит/(Пиксели*Кадры) : 0.365
Размер потока : 1,32 Гбайт (90%)
Библиотека кодирования : XviD 73
Аудио
Идентификатор : 1
Формат : AC-3
Формат/Информация : Audio Coding 3
Идентификатор кодека : 2000
Продолжительность : 1 ч. 38 м.
Вид битрейта : Постоянный
Битрейт : 192 Кбит/сек
Каналы : 2 канала
Расположение каналов : Front: L R
Частота : 48,0 КГц
Частота кадров : 31,250 кадров/сек (1536 SPF)
Битовая глубина : 16 бит
Метод сжатия : С потерями
Размер потока : 135 Мбайт (9%)
Выравнивание : Разделение по промежуткам
Продолжительность промежутка : 42 мс. (1,00 видеокадр)
Время предзагрузки промежутка : 500 мс.
ServiceKind/String : Complete Main
Трейлер
Download / Скачать

Хотите скачать бесплатно? Зарегистрируйтесь на сайте (ссылка на регистрацию). Pirat.ca - самый быстрый торрент трекер в рунете!

Как скачивать  ·   Что такое торрент  ·   Рейтинг и ограничения

jofrei53

Флибустьер

Пост 08-Янв-2018 21:48 (спустя 8 часов)

[Q] 

Заинтересовало, посмотрим.... Спасибо! Автору респект!!! Лови бочку
[Профиль]  [ЛС] 

Кристина119

Гроза морей

Пост 08-Янв-2018 23:56 (спустя 2 часа 8 минут)

[Q] 

Да, трейлер хорош Лови бочку
[Профиль]  [ЛС] 

pvm

Флибустьер

Пост 09-Янв-2018 00:11 (спустя 15 минут)

[Q] 

Интересно, как там Аль Пачино? Надо смотреть.
[Профиль]  [ЛС] 

tyulen29

Шкипер

Пост 19-Янв-2018 11:58 (спустя 10 дней)

[Q] 

Скукота.хватило минут на 40. На любителя
[Профиль]  [ЛС] 

Пост 09-Фев-2018 16:50 (спустя 21 день)

Топик был перенесен из форума Новинки (HD|DVD|BD| TV|SAT|PDTV| - Rips) в форум Фильмы 2010 - 2017 г.г.
aleksey99
 
Показать сообщения:    
Ответить на тему

Текущее время: Сегодня 04:18

Часовой пояс: GMT + 4



Вы не можете начинать темы
Вы не можете отвечать на сообщения
Вы не можете редактировать свои сообщения
Вы не можете удалять свои сообщения
Вы не можете голосовать в опросах
Вы не можете прикреплять файлы к сообщениям
Вы не можете скачивать файлы

Майнать ▼