Цепной пёс / Bullet Head (Пол Солет / Paul Solet) [2017 г., триллер, драма, криминал, HDRip] Dub [Чистый звук]

Ответить на тему
 
Автор
Сообщение

Пост 08-Янв-2018 17:10

[Q] 

aleksey99

--Цепной пёс / Bullet Head-- Производство: Болгария, США
Год выпуска: 2017 г.
Жанр: триллер, драма, криминал
Продолжительность: 01:35:21--Мировая премьера: 7 декабря 2017
Российская премьера: 7 декабря 2017, «MEGOGO Distribution», «Двадцатый Век Фокс СНГ»--Перевод: Профессиональный (полное дублирование) [Чистый звук]--Режиссер: Пол Солет / Paul Solet--В ролях: Эдриан Броуди, Рори Калкин, Антонио Бандерас, Джон Малкович, Александра Дину, Кристина Сеговиа, Ори Феффер, Оуэн Дэвис, Велизар Бинев, Кит Д. Эванс--Описание: Даже у самого верного дела возможны разные варианты завершения. Матерые преступники, пытаясь по наводке обчистить полицейский склад, оказываются в ловушке с разъяренным сторожевым псом по кличке ДеНиро. Счастливый финал кажется все более призрачным…-- --Качество видео: HDRip
Контейнер: AVI
Видео кодек: XviD
Аудио кодек: AC3
Видео: 720x304 (2.37:1), 23.976 fps, XviD build 50 ~1594 kbps avg, 0.30 bit/pixel
Аудио: 48 kHz, AC3 Dolby Digital, 2/0 (L,R) ch, ~448 kbps
Cубтитры: Отсутствуют .
Общее
Полное имя : H:\Torrent2\Bullet.Head.2017.D.HDRip.14OOMB.avi
Формат : AVI
Формат/Информация : Audio Video Interleave
Размер файла : 1,37 Гбайт
Продолжительность : 1 ч. 35 м.
Общий поток : 2052 Кбит/сек
Программа кодирования : VirtualDubMod 1.5.10.2 (build 2540/release)
Библиотека кодирования : VirtualDubMod build 2540/release
Видео
Идентификатор : 0
Формат : MPEG-4 Visual
Профиль формата : Advanced [email protected]
Настройки формата : BVOP2
Параметр BVOP формата : 2
Параметр QPel формата : Нет
Параметр GMC формата : Без точки перехода
Параметр матрицы формата : Default (MPEG)
Идентификатор кодека : XVID
Идентификатор кодека/Подсказка : XviD
Продолжительность : 1 ч. 35 м.
Битрейт : 1595 Кбит/сек
Ширина : 720 пикселей
Высота : 304 пикселя
Соотношение сторон : 2,35:1
Частота кадров : 23,976 (24000/1001) кадра/сек
Цветовое пространство : YUV
Субдискретизация насыщенности : 4:2:0
Битовая глубина : 8 бит
Тип развёртки : Прогрессивная
Метод сжатия : С потерями
Бит/(Пиксели*Кадры) : 0.304
Размер потока : 1,06 Гбайт (78%)
Библиотека кодирования : XviD 1.2.1 (UTC 2008-12-04)
Аудио
Идентификатор : 1
Формат : AC-3
Формат/Информация : Audio Coding 3
Идентификатор кодека : 2000
Продолжительность : 1 ч. 35 м.
Вид битрейта : Постоянный
Битрейт : 448 Кбит/сек
Каналы : 2 канала
Расположение каналов : Front: L R
Частота : 48,0 КГц
Частота кадров : 31,250 кадров/сек (1536 SPF)
Битовая глубина : 16 бит
Метод сжатия : С потерями
Размер потока : 306 Мбайт (22%)
Выравнивание : Разделение по промежуткам
Продолжительность промежутка : 42 мс. (1,00 видеокадр)
Время предзагрузки промежутка : 500 мс.
ServiceKind/String : Complete Main
Трейлер
Download / Скачать

Хотите скачать бесплатно? Зарегистрируйтесь на сайте (ссылка на регистрацию). Pirat.ca - самый быстрый торрент трекер в рунете!

Как скачивать  ·   Что такое торрент  ·   Рейтинг и ограничения

msss

Корсар

Пост 08-Янв-2018 22:13 (спустя 5 часов)

[Q] 

Много отрицательных отзывов. Но я бы назвал фильм вполне достойным, чего не отнять так это сопереживанию героям хотя и все они мудаки. Вообщем смотреть можно.
[Профиль]  [ЛС] 

clark

Флибустьер

Пост 08-Янв-2018 23:34 (спустя 1 час 20 минут)

[Q] 

спасибо заценем!!!

_________________
Последним смеётся тот, кто стреляет первым.
[Профиль]  [ЛС] 

Apostle358

Корсар

168

Пост 09-Янв-2018 06:52 (спустя 7 часов)

[Q] 

Скачаю только ради актёрского состава.
[Профиль]  [ЛС] 

RomanDV

Лоцман

Пост 12-Янв-2018 09:52 (спустя 3 дня)

[Q] 

Реклама известного сайта, звук как всегда от них с эффектом эха. в углу тоже висит реклама.
[Профиль]  [ЛС] 

Пост 09-Фев-2018 16:50 (спустя 28 дней)

Топик был перенесен из форума Новинки (HD|DVD|BD| TV|SAT|PDTV| - Rips) в форум Фильмы 2010 - 2017 г.г.
aleksey99
 
Показать сообщения:    
Ответить на тему

Текущее время: Сегодня 01:07

Часовой пояс: GMT + 4



Вы не можете начинать темы
Вы не можете отвечать на сообщения
Вы не можете редактировать свои сообщения
Вы не можете удалять свои сообщения
Вы не можете голосовать в опросах
Вы не можете прикреплять файлы к сообщениям
Вы не можете скачивать файлы

Майнать ▼