Уважаемый Гость!
Вы можете поддержать проект и зарегистрироваться у наших партнеров - онлайн-стратегия MyLands. При регистрации в игре Вы получите код, который сможете активировать после регистрации на pirat.ca и получить 1000 дублонов.

Ваш код:
682fda369db314ffc3bf18d836fce8f4c6b7be8f
 
     

Статус Брэда / Brad's Status (Майк Уайт / Mike White) [2017, драма, комедия, BDRip-AVC] Dub [iTunes] + Original (Eng) + Sub (Eng)

Ответить на тему
 
Автор
Сообщение

Пост 09-Янв-2018 07:17

[Q] 

aleksey99

--Статус Брэда / Brad's Status--«Оглянись, счастье рядом»-- Производство: США / Montreal Casting, Plan B Entertainment
Год выпуска: 2017 г.
Жанр: драма, комедия
Продолжительность: 01:41:57--Мировая премьера: 9 сентября 2017
Российская премьера: 14 сентября 2017, «Парадиз»--Перевод: Профессиональный (полное дублирование) [iTunes]
Оригинальный аудиопоток: английский--Режиссер: Майк Уайт / Mike White--В ролях: Бен Стиллер, Остин Абрамс, Дженна Фишер, Майкл Шин, Джемейн Клемент, Люк Уилсон, Шази Раджа, Луиза Ли, Майк Уайт, Хавьер Гробет--Описание: У Брэда есть всё, чтобы быть счастливым. Но когда он встречает более успешных друзей детства, которые обставили его по всем статьям, он чувствует себя полным лузером.-- --Качество видео: BDRip-AVC
Контейнер: MKV
Видео кодек: AVC/H.264
Аудио кодек: AC3
Видео: x264, 1152x574 (2.007:1) 23,976 fps, ~2821 kbps, 0,178 bit/pixel
Аудио 1: 48 kHz, AC3 Dolby Digital, 3/2 (L,C,R,l,r) + LFE ch, ~384 kbps kbps RUS
Аудио 2: 48 kHz, AC3 Dolby Digital, 3/2 (L,C,R,l,r) + LFE ch, ~448 kbps ENG
Cубтитры: английские.
Общее
Уникальный идентификатор : 339446089487788460511389414213623804923 (0xFF5EF056D546B4F7CA321DAE55A4F3FB)
Полное имя : H:\Torrent2\Brads.Status.2017.BDRip-AVC.OIV.mkv
Формат : Matroska
Версия формата : Version 4 / Version 2
Размер файла : 2,60 Гбайт
Продолжительность : 1 ч. 41 м.
Общий поток : 3655 Кбит/сек
Дата кодирования : UTC 2018-01-08 12:38:02
Программа кодирования : mkvmerge v19.0.0 ('Brave Captain') 64-bit
Библиотека кодирования : libebml v1.3.5 + libmatroska v1.4.8
Видео
Идентификатор : 1
Формат : AVC
Формат/Информация : Advanced Video Codec
Профиль формата : [email protected]
Настройки формата : CABAC / 11 Ref Frames
Параметр CABAC формата : Да
Параметр RefFrames формата : 11 кадров
Идентификатор кодека : V_MPEG4/ISO/AVC
Продолжительность : 1 ч. 41 м.
Битрейт : 2821 Кбит/сек
Ширина : 1152 пикселя
Высота : 574 пикселя
Соотношение сторон : 2,007
Режим частоты кадров : Постоянный
Частота кадров : 23,976 (24000/1001) кадра/сек
Цветовое пространство : YUV
Субдискретизация насыщенности : 4:2:0
Битовая глубина : 8 бит
Тип развёртки : Прогрессивная
Бит/(Пиксели*Кадры) : 0.178
Размер потока : 2,01 Гбайт (77%)
Библиотека кодирования : x264 core 152 r2851 ba24899
Настройки программы : cabac=1 / ref=11 / deblock=1:-3:-2 / analyse=0x3:0x133 / me=umh / subme=10 / psy=1 / psy_rd=1.00:0.00 / mixed_ref=1 / me_range=32 / chroma_me=1 / trellis=2 / 8x8dct=1 / cqm=0 / deadzone=21,11 / fast_pskip=0 / chroma_qp_offset=-2 / threads=6 / lookahead_threads=1 / sliced_threads=0 / nr=0 / decimate=1 / interlaced=0 / bluray_compat=0 / constrained_intra=0 / bframes=9 / b_pyramid=2 / b_adapt=2 / b_bias=0 / direct=1 / weightb=1 / open_gop=0 / weightp=2 / keyint=250 / keyint_min=23 / scenecut=40 / intra_refresh=0 / rc=crf / mbtree=0 / crf=19.2 / qcomp=0.65 / qpmin=0 / qpmax=69 / qpstep=4 / ip_ratio=1.40 / pb_ratio=1.30 / aq=3:0.90
Язык : English
Default : Да
Forced : Нет
Аудио #1
Идентификатор : 2
Формат : AC-3
Формат/Информация : Audio Coding 3
Идентификатор кодека : A_AC3
Продолжительность : 1 ч. 41 м.
Вид битрейта : Постоянный
Битрейт : 384 Кбит/сек
Каналы : 6 каналов
Расположение каналов : Front: L C R, Side: L R, LFE
Частота : 48,0 КГц
Частота кадров : 31,250 кадров/сек (1536 SPF)
Битовая глубина : 16 бит
Метод сжатия : С потерями
Размер потока : 280 Мбайт (11%)
Заголовок : iTunes
Язык : Russian
ServiceKind/String : Complete Main
Default : Да
Forced : Нет
Аудио #2
Идентификатор : 3
Формат : AC-3
Формат/Информация : Audio Coding 3
Идентификатор кодека : A_AC3
Продолжительность : 1 ч. 41 м.
Вид битрейта : Постоянный
Битрейт : 448 Кбит/сек
Каналы : 6 каналов
Расположение каналов : Front: L C R, Side: L R, LFE
Частота : 48,0 КГц
Частота кадров : 31,250 кадров/сек (1536 SPF)
Битовая глубина : 16 бит
Метод сжатия : С потерями
Размер потока : 327 Мбайт (12%)
Язык : English
ServiceKind/String : Complete Main
Default : Нет
Forced : Нет
Текст
Идентификатор : 4
Формат : UTF-8
Идентификатор кодека : S_TEXT/UTF8
Идентификатор кодека/Информация : UTF-8 Plain Text
Продолжительность : 1 ч. 40 м.
Битрейт : 76 бит/сек
ElementCount : 1740
Размер потока : 56,5 Кбайт (0%)
Язык : English
Default : Нет
Forced : Нет
Меню
00:00:00.000 : en:Chapter 1
00:06:45.655 : en:Chapter 2
00:09:51.549 : en:Chapter 3
00:13:41.821 : en:Chapter 4
00:19:08.647 : en:Chapter 5
00:25:13.929 : en:Chapter 6
00:31:48.615 : en:Chapter 7
00:34:22.769 : en:Chapter 8
00:39:59.063 : en:Chapter 9
00:43:55.508 : en:Chapter 10
00:49:21.041 : en:Chapter 11
00:56:21.503 : en:Chapter 12
01:03:05.156 : en:Chapter 13
01:07:03.770 : en:Chapter 14
01:10:27.306 : en:Chapter 15
01:15:14.802 : en:Chapter 16
01:22:07.047 : en:Chapter 17
01:27:11.268 : en:Chapter 18
01:31:19.265 : en:Chapter 19
01:35:28.723 : en:Chapter 20
Трейлер
Download / Скачать

Хотите скачать бесплатно? Зарегистрируйтесь на сайте (ссылка на регистрацию). Pirat.ca - самый быстрый торрент трекер в рунете!

Как скачивать  ·   Что такое торрент  ·   Рейтинг и ограничения

zmaksimz

Корсар

Пост 09-Янв-2018 14:01 (спустя 6 часов)

[Q] 

Ну так себе
На 3+
[Профиль]  [ЛС] 

msss

Корсар

Пост 12-Янв-2018 21:06 (спустя 3 дня)

[Q] 

Фильму нельзя ставить оценку, немного специфичный жанр. Смотреть только в задумчивом настроении, не ожидая ни какого экшна или юмора. Заставляет не то чтобы задуматься но немножко подумать точно. Мне зашло! Автору респект!!!
[Профиль]  [ЛС] 

ketzer

Корсар

Пост 21-Янв-2018 09:12 (спустя 8 дней)

[Q] 

Это НЕ комедия, а специфическая легкая драма о кризисе среднего возраста в американо-еврейском стиле. Персонаж Стиллера отлично живет, но страдает от того, что кто-то из знакомых живет лучше. Потом он начинает узнавать, что у них тоже есть проблемы, и ему становится лучше.
[Профиль]  [ЛС] 

meschanov

Лоцман

Пост 21-Янв-2018 23:48 (спустя 14 часов)

[Q] 

Унылое говно. au
[Профиль]  [ЛС] 

VooL

Шкипер

Пост 26-Янв-2018 20:14 (спустя 4 дня)

[Q] 

нам с женой понравился. со смыслом, далеко не комедия Спасибо!!!

_________________
Водку не обещаю, но погуляем на славу (с) Иван Сусанин
[Профиль]  [ЛС] 

Пост 09-Фев-2018 16:50 (спустя 13 дней)

Топик был перенесен из форума Новинки (HD|DVD|BD| TV|SAT|PDTV| - Rips) в форум Фильмы 2010 - 2017 г.г.
aleksey99
 
Показать сообщения:    
Ответить на тему

Текущее время: Сегодня 11:53

Часовой пояс: GMT + 4



Вы не можете начинать темы
Вы не можете отвечать на сообщения
Вы не можете редактировать свои сообщения
Вы не можете удалять свои сообщения
Вы не можете голосовать в опросах
Вы не можете прикреплять файлы к сообщениям
Вы не можете скачивать файлы

▼ Вниз