[Jolly Roger] Планета обезьян: Пенталогия / Planet of the Apes: 40-Year Evolution Collection (Франклин Дж. Шаффнер, Тед Пост / Franklin J. Schaffner, Ted Post) [1968-1973 г., фантастика, триллер, приключения, Blu-Ray Rip, 1080p] MVO + Dub

Ответить на тему
 
Автор
Сообщение

Пост 24-Дек-2012 22:08

[Q] 

genkasper

-Планета обезьян: Пенталогия – 40 лет эволюции / Planet of the Apes: 40-Year Evolution Collection --Планета обезьян / Planet of the Apes-- Год выпуска: 1968 г.
Производство: США
Жанр: фантастика, триллер, приключения, боевик
Продолжительность: 01:52:02
Перевод: Профессиональный (многоголосый, закадровый), Профессиональный (полное дублирование)
Режиссер: Франклин Дж. Шаффнер / Franklin J. Schaffner
В ролях: Чарлтон Хестон, Родди МакДауэлл, Ким Хантер, Морис Эванс, Джеймс Уайтмор, Джеймс Дэйли, Линда Харрисон, Robert Gunner, Лу Вагнер, Woodrow Parfrey, Джефф Бертон, Buck Kartalian, Норман Бертон, Райт Кинг, Пол Ламберт, Джеймс Бэйкон, Присцилла Бойд, Элдон Бурк, Дэвид Чоу, Билли Кертис, Фрэнк Делфино
Описание: После успешно выполненного задания космический корабль устремляется к Земле, хотя астронавты отчетливо понимают, что на земле из-за парадокса Эйнштейна уже прошло несколько столетий, а значит нет уже никого на планете, кто даже отдаленно мог бы назваться близким для них человеком.
Но когда звездолет терпит катастрофу на непонятной планете, совсем не похожей на добродушную матушку-Землю, оставшиеся в живых, но потерявшие все имущество космонавты вдруг с ужасом понимают, что круто попали...
Попали в плен к суровым и агрессивным человекоподобным монстрам, более похожим на горилл из их прошлой жизни. Где мы? И что происходит? Вот вопросы, на которые пока не видно ответа...
--Качество видео: Blu-Ray Rip
Формат видео: MKV
Стандарт разрешения: 1080p
Видео кодек: H.264
Аудио кодек: DTS
Видео: 1920x816 at 23.976 fps, 13 Mbps, 0.346
Аудио: 48 kHz, DTS, 3/2 (L,C,R,l,r) + LFE ch, ~1510 kbps avg (Русский, Многоголосый закадровый, «Омикрон»)
Аудио 2: 48 kHz, DTS, 3/2 (L,C,R,l,r) + LFE ch, ~755 kbps avg (Русский, полное дублирование)
Аудио 3: 48 kHz, DTS (L,C,R,l,r) + LFE ch, 1510 kbps (original)
Субтитры: русские, английские
Навигация по главам: есть
GeneralComplete name : 1.Planet.of.the.Apes.1968.BDRip.1080p.JRG.mkv
Format : Matroska
Format version : Version 2
File size : 13.1 GiB
Duration : 1h 52mn
Overall bit rate : 16.8 Mbps
Movie name : Rip by genkasper for R.G. Jolly Roger
Encoded date : UTC 2012-12-24 14:57:09
Writing application : mkvmerge v5.8.0 ('No Sleep / Pillow') built on Sep 2 2012 15:37:04
Writing library : libebml v1.2.3 + libmatroska v1.3.0
Video
ID : 1
Format : AVC
Format/Info : Advanced Video Codec
Format profile : [email protected]
Format settings, CABAC : Yes
Format settings, ReFrames : 5 frames
Codec ID : V_MPEG4/ISO/AVC
Duration : 1h 52mn
Bit rate : 13.0 Mbps
Width : 1 920 pixels
Height : 816 pixels
Display aspect ratio : 2.35:1
Frame rate mode : Constant
Frame rate : 23.976 fps
Color space : YUV
Chroma subsampling : 4:2:0
Bit depth : 8 bits
Scan type : Progressive
Bits/(Pixel*Frame) : 0.346
Stream size : 9.92 GiB (76%)
Title : Rip by genkasper for R.G. Jolly Roger
Writing library : x264 core 125 r2200 999b753
Encoding settings : cabac=1 / ref=5 / deblock=1:-2:-2 / analyse=0x3:0x133 / me=umh / subme=11 / psy=1 / psy_rd=1.00:0.00 / mixed_ref=1 / me_range=48 / chroma_me=1 / trellis=2 / 8x8dct=1 / cqm=0 / deadzone=21,11 / fast_pskip=0 / chroma_qp_offset=-2 / threads=9 / lookahead_threads=1 / sliced_threads=0 / nr=0 / decimate=0 / interlaced=0 / bluray_compat=0 / constrained_intra=0 / bframes=9 / b_pyramid=2 / b_adapt=2 / b_bias=0 / direct=3 / weightb=1 / open_gop=0 / weightp=2 / keyint=250 / keyint_min=23 / scenecut=40 / intra_refresh=0 / rc_lookahead=50 / rc=2pass / mbtree=1 / bitrate=13000 / ratetol=1.0 / qcomp=0.70 / qpmin=0 / qpmax=69 / qpstep=4 / cplxblur=20.0 / qblur=0.5 / ip_ratio=1.40 / aq=1:1.00
Language : English
Default : Yes
Forced : No
Audio #1
ID : 2
Format : DTS
Format/Info : Digital Theater Systems
Codec ID : A_DTS
Duration : 1h 52mn
Bit rate mode : Constant
Bit rate : 1 510 Kbps
Channel(s) : 6 channels
Channel positions : Front: L C R, Side: L R, LFE
Sampling rate : 48.0 KHz
Bit depth : 24 bits
Compression mode : Lossy
Stream size : 1.18 GiB (9%)
Title : MVO
Language : Russian
Default : Yes
Forced : No
Audio #2
ID : 3
Format : DTS
Format/Info : Digital Theater Systems
Codec ID : A_DTS
Duration : 1h 52mn
Bit rate mode : Constant
Bit rate : 755 Kbps
Channel(s) : 6 channels
Channel positions : Front: L C R, Side: L R, LFE
Sampling rate : 48.0 KHz
Bit depth : 24 bits
Compression mode : Lossy
Stream size : 605 MiB (4%)
Title : Dub
Language : Russian
Default : No
Forced : No
Audio #3
ID : 4
Format : DTS
Format/Info : Digital Theater Systems
Codec ID : A_DTS
Duration : 1h 52mn
Bit rate mode : Constant
Bit rate : 1 510 Kbps
Channel(s) : 6 channels
Channel positions : Front: L C R, Side: L R, LFE
Sampling rate : 48.0 KHz
Bit depth : 24 bits
Compression mode : Lossy
Stream size : 1.18 GiB (9%)
Language : English
Default : No
Forced : No
Text #1
ID : 5
Format : UTF-8
Codec ID : S_TEXT/UTF8
Codec ID/Info : UTF-8 Plain Text
Language : Russian
Default : Yes
Forced : No
Text #2
ID : 6
Format : UTF-8
Codec ID : S_TEXT/UTF8
Codec ID/Info : UTF-8 Plain Text
Language : English
Default : No
Forced : No
Menu
00:00:00.000 : en:The Long Sleep
00:03:26.998 : en:Main Titles
00:05:24.032 : en:Crash Landing
00:11:36.487 : en:The Expedition
00:19:01.515 : en:The Seekers
00:21:10.727 : en:Life
00:24:43.607 : en:Scarecrows
00:27:52.379 : en:The Clothes Snatchers
00:31:04.112 : en:The Hunt
00:36:14.505 : en:Zira
00:38:09.412 : en:Dr. Zaius
00:42:57.449 : en:Cornelius
00:46:18.192 : en:"My Name Is Taylor"
00:48:08.385 : en:"It's A Stunt"
00:53:46.598 : en:No Escape
01:00:15.612 : en:"It's A Madhouse!"
01:03:40.358 : en:The Hearing
01:10:58.545 : en:New Identity
01:12:59.541 : en:Talking Heresy
01:16:37.718 : en:Zaius' Fear
01:20:55.392 : en:The Abduction
01:27:04.344 : en:The Forbidden Zone
01:29:52.220 : en:On the Beach
01:34:18.027 : en:The Cave
01:38:39.622 : en:The Hostage
01:43:44.426 : en:Saying Goodbye
01:48:48.855 : en:The Revelation
01:51:17.671 : en:Cast of Characters

--Под планетой обезьян / Beneath the Planet of the Apes-- Год выпуска: 1970 г.
Производство: США
Жанр: фантастика, триллер, приключения, боевик
Продолжительность: 01:34:42
Перевод: Профессиональный (многоголосый, закадровый)
Режиссер: Тед Пост / Ted Post
В ролях: James Franciscus, Ким Хантер, Морис Эванс, Линда Харрисон, Пол Ричардс, Виктор Буоно, Джеймс Грегори, Джефф Кори, Natalie Trundy, Томас Гомез, Дэвид Уотсон, Дон Педро Колли, Тод Эндрюс, Грегори Сьерра, Элдон Бурк, Чарлтон Хестон, Лу Вагнер, Джеймс Бэйкон, Paul Frees, Родди МакДауэлл
Описание: Это вторая серия из пяти, рассказывающих о жизни на Земле в конце 40-го века от Рождества Христова. Когда после катастрофы звездолета оставшиеся в живых астронавты попали в плен к жутким человекоподобным обезьянам, все думали, что это конец.
Много приключений было у людей, но, в конце концов, самый лучший и удачливый из них - Брент, вынужден отправиться на поиски своих соплеменников. Он знает, что маленькие группки изменившихся после атомного взрыва людей скрываются в совершенно секретном подземном городе и совершенно не желают ни с кем поддерживать отношения...
--Качество видео: Blu-Ray Rip
Формат видео: MKV
Стандарт разрешения: 1080p
Видео кодек: H.264
Аудио кодек: DTS
Видео: 1920x816 at 23.976 fps, 17 Mbps, 0.453
Аудио: 48 kHz, DTS, 3/2 (L,C,R,l,r) + LFE ch, ~1510 kbps avg (Русский, Многоголосый закадровый, «Омикрон»)
Аудио 2: 48 kHz, DTS (L,C,R,l,r) + LFE ch, 1510 kbps (original)
Субтитры: английские
Навигация по главам: есть
General
Complete name : 2.Beneath.the.Planet.of.the.Apes.1970.BDRip.1080p.JRG.mkv
Format : Matroska
Format version : Version 2
File size : 13.2 GiB
Duration : 1h 34mn
Overall bit rate : 20.0 Mbps
Movie name : Rip by genkasper for R.G. Jolly Roger
Encoded date : UTC 2012-12-24 15:54:32
Writing application : mkvmerge v5.8.0 ('No Sleep / Pillow') built on Sep 2 2012 15:37:04
Writing library : libebml v1.2.3 + libmatroska v1.3.0
Video
ID : 1
Format : AVC
Format/Info : Advanced Video Codec
Format profile : [email protected]
Format settings, CABAC : Yes
Format settings, ReFrames : 5 frames
Codec ID : V_MPEG4/ISO/AVC
Duration : 1h 34mn
Bit rate : 17.0 Mbps
Width : 1 920 pixels
Height : 816 pixels
Display aspect ratio : 2.35:1
Frame rate mode : Constant
Frame rate : 23.976 fps
Color space : YUV
Chroma subsampling : 4:2:0
Bit depth : 8 bits
Scan type : Progressive
Bits/(Pixel*Frame) : 0.453
Stream size : 11.0 GiB (83%)
Title : Rip by genkasper for R.G. Jolly Roger
Writing library : x264 core 125 r2200 999b753
Encoding settings : cabac=1 / ref=5 / deblock=1:-2:-2 / analyse=0x3:0x133 / me=umh / subme=11 / psy=1 / psy_rd=1.00:0.00 / mixed_ref=1 / me_range=48 / chroma_me=1 / trellis=2 / 8x8dct=1 / cqm=0 / deadzone=21,11 / fast_pskip=0 / chroma_qp_offset=-2 / threads=9 / lookahead_threads=1 / sliced_threads=0 / nr=0 / decimate=0 / interlaced=0 / bluray_compat=0 / constrained_intra=0 / bframes=9 / b_pyramid=2 / b_adapt=2 / b_bias=0 / direct=3 / weightb=1 / open_gop=0 / weightp=2 / keyint=250 / keyint_min=23 / scenecut=40 / intra_refresh=0 / rc_lookahead=50 / rc=2pass / mbtree=1 / bitrate=17000 / ratetol=1.0 / qcomp=0.70 / qpmin=0 / qpmax=69 / qpstep=4 / cplxblur=20.0 / qblur=0.5 / ip_ratio=1.40 / aq=1:1.00
Language : English
Default : Yes
Forced : No
Audio #1
ID : 2
Format : DTS
Format/Info : Digital Theater Systems
Codec ID : A_DTS
Duration : 1h 34mn
Bit rate mode : Constant
Bit rate : 1 510 Kbps
Channel(s) : 6 channels
Channel positions : Front: L C R, Side: L R, LFE
Sampling rate : 48.0 KHz
Bit depth : 24 bits
Compression mode : Lossy
Stream size : 1 023 MiB (8%)
Title : MVO
Language : Russian
Default : Yes
Forced : No
Audio #2
ID : 3
Format : DTS
Format/Info : Digital Theater Systems
Codec ID : A_DTS
Duration : 1h 34mn
Bit rate mode : Constant
Bit rate : 1 510 Kbps
Channel(s) : 6 channels
Channel positions : Front: L C R, Side: L R, LFE
Sampling rate : 48.0 KHz
Bit depth : 24 bits
Compression mode : Lossy
Stream size : 1 023 MiB (8%)
Language : English
Default : No
Forced : No
Text
ID : 4
Format : UTF-8
Codec ID : S_TEXT/UTF8
Codec ID/Info : UTF-8 Plain Text
Language : English
Default : No
Forced : No
Menu
00:00:00.000 : en:The Revelation
00:02:25.354 : en:Main Titles
00:05:28.161 : en:The Same Trajectory
00:09:20.310 : en:Brent and Nova
00:16:51.719 : en:Ursus' Speech
00:22:45.447 : en:The Steambath
00:24:05.611 : en:Sanctuary
00:31:24.633 : en:Capture
00:33:54.741 : en:Military Training
00:35:08.940 : en:Escape
00:38:29.057 : en:The Chase
00:41:12.303 : en:Welcome Home
00:43:56.634 : en:The Eve of a Holy War
00:49:20.875 : en:Following the Hum
00:53:51.186 : en:Force of Evil
00:56:51.700 : en:The Almighty Bomb
00:59:40.535 : en:Interrogation
01:07:53.361 : en:Apes on the March
01:13:31.407 : en:The Inmost Self
01:18:10.603 : en:Taylor
01:24:46.957 : en:The Apes Attack
01:26:53.083 : en:Losing Nova
01:29:23.316 : en:Doomsday
01:33:49.833 : en:End Titles

--Бегство с планеты обезьян / Escape from the Planet of the Apes-- Год выпуска: 1971 г.
Производство: США
Жанр: фантастика, триллер, приключения, боевик
Продолжительность: 01:37:32
Перевод: Профессиональный (многоголосый, закадровый)
Режиссер: Дон Тейлор / Don Taylor
В ролях: Родди МакДауэлл, Ким Хантер, Брэдфорд Диллман, Natalie Trundy, Эрик Браден, Уильям Уиндом, Сэл Минео, Albert Salmi, Херберт Эверс, Джон Рэндольф, Гарри Лоутер, М. Эммет Уолш, Рой Гленн, Питер Форстер, Норман Бертон, Уильям Вудсон, Том Лоуелл, Джин Уиттингтон, Дональд Элсон, Билл Бондс, Арми Арчерд
Описание: Это третья серия из пяти, рассказывающих о жизни на Земле в конце 40-го века от Рождества Христова. Две самые продвинутые обезьяны - Зира и Корнелий - настолько далеко зашли в своих научных исследованиях, что обнаружили способ перемещения во времени и решили разобраться в причинах безобразий, происходящих на родной планете.
Для этого они отправляются в двадцатый век и оказываются в американском Лос-Анджелесе. Почему это они решили, что в таком виде в Америке можно разгуливать просто так, безнаказанно? Ошибочка вышла! Янки устраивают настоящее «сафари» на экзотические биологические объекты...
--Качество видео: Blu-Ray Rip
Формат видео: MKV
Стандарт разрешения: 1080p
Видео кодек: H.264
Аудио кодек: DTS
Видео: 1920x816 at 23.976 fps, 12.5 Mbps, 0.333
Аудио: 48 kHz, DTS, 3/2 (L,C,R,l,r) + LFE ch, ~1510 kbps avg (Русский, Многоголосый закадровый, «Омикрон»)
Аудио 2: 48 kHz, DTS (L,C,R,l,r) + LFE ch, 1510 kbps (original)
Субтитры: английские
Навигация по главам: есть
General
Complete name : 3.Escape.from.the.Planet.of.the.Apes.1971.BDRip.1080p.JRG.mkv
Format : Matroska
Format version : Version 2
File size : 10.6 GiB
Duration : 1h 37mn
Overall bit rate : 15.5 Mbps
Movie name : Rip by genkasper for R.G. Jolly Roger
Encoded date : UTC 2012-12-24 16:16:38
Writing application : mkvmerge v5.8.0 ('No Sleep / Pillow') built on Sep 2 2012 15:37:04
Writing library : libebml v1.2.3 + libmatroska v1.3.0
Video
ID : 1
Format : AVC
Format/Info : Advanced Video Codec
Format profile : [email protected]
Format settings, CABAC : Yes
Format settings, ReFrames : 5 frames
Codec ID : V_MPEG4/ISO/AVC
Duration : 1h 37mn
Bit rate : 12.5 Mbps
Width : 1 920 pixels
Height : 816 pixels
Display aspect ratio : 2.35:1
Frame rate mode : Constant
Frame rate : 23.976 fps
Color space : YUV
Chroma subsampling : 4:2:0
Bit depth : 8 bits
Scan type : Progressive
Bits/(Pixel*Frame) : 0.333
Stream size : 8.31 GiB (79%)
Title : Rip by genkasper for R.G. Jolly Roger
Writing library : x264 core 125 r2200 999b753
Encoding settings : cabac=1 / ref=5 / deblock=1:-2:-2 / analyse=0x3:0x133 / me=umh / subme=11 / psy=1 / psy_rd=1.00:0.00 / mixed_ref=1 / me_range=48 / chroma_me=1 / trellis=2 / 8x8dct=1 / cqm=0 / deadzone=21,11 / fast_pskip=0 / chroma_qp_offset=-2 / threads=9 / lookahead_threads=1 / sliced_threads=0 / nr=0 / decimate=0 / interlaced=0 / bluray_compat=0 / constrained_intra=0 / bframes=9 / b_pyramid=2 / b_adapt=2 / b_bias=0 / direct=3 / weightb=1 / open_gop=0 / weightp=2 / keyint=250 / keyint_min=23 / scenecut=40 / intra_refresh=0 / rc_lookahead=50 / rc=2pass / mbtree=1 / bitrate=12500 / ratetol=1.0 / qcomp=0.70 / qpmin=0 / qpmax=69 / qpstep=4 / cplxblur=20.0 / qblur=0.5 / ip_ratio=1.40 / aq=1:1.00
Language : English
Default : Yes
Forced : No
Audio #1
ID : 2
Format : DTS
Format/Info : Digital Theater Systems
Codec ID : A_DTS
Duration : 1h 37mn
Bit rate mode : Constant
Bit rate : 1 510 Kbps
Channel(s) : 6 channels
Channel positions : Front: L C R, Side: L R, LFE
Sampling rate : 48.0 KHz
Bit depth : 24 bits
Compression mode : Lossy
Stream size : 1.03 GiB (10%)
Language : Russian
Default : Yes
Forced : No
Audio #2
ID : 3
Format : DTS
Format/Info : Digital Theater Systems
Codec ID : A_DTS
Duration : 1h 37mn
Bit rate mode : Constant
Bit rate : 1 510 Kbps
Channel(s) : 6 channels
Channel positions : Front: L C R, Side: L R, LFE
Sampling rate : 48.0 KHz
Bit depth : 24 bits
Compression mode : Lossy
Stream size : 1.03 GiB (10%)
Language : English
Default : No
Forced : No
Text
ID : 4
Format : UTF-8
Codec ID : S_TEXT/UTF8
Codec ID/Info : UTF-8 Plain Text
Language : English
Default : No
Forced : No
Menu
00:00:00.000 : en:Pickup and Recovery
00:04:15.505 : en:Main Titles
00:07:19.689 : en:Playing Dumb
00:11:50.543 : en:Drs. Dixon & Branton
00:15:24.798 : en:"I Loathe Bananas"
00:17:33.510 : en:Introductions
00:20:12.085 : en:In the News
00:22:22.966 : en:The Presidential Inquiry
00:32:07.258 : en:Hasslein's Theory
00:35:44.934 : en:Toast of the Town
00:41:52.968 : en:Zira's Delicate Condition
00:45:33.522 : en:Hasslein's Fear
00:50:14.428 : en:How It All Started
00:55:31.202 : en:Sodium Pentothal
01:01:06.746 : en:The Commision
01:03:07.784 : en:Boiling Point
01:05:39.060 : en:On the Run
01:10:17.296 : en:Stevie's Idea
01:12:24.590 : en:Armando's Circus
01:15:43.789 : en:Time to Go
01:19:14.166 : en:Saying Goodbye
01:23:24.708 : en:The Oil Field
01:26:04.993 : en:In Hasslein's Sights
01:27:35.500 : en:Aboard the Derelict
01:31:09.547 : en:Confrontation
01:36:02.756 : en:Simian Survival
01:36:49.804 : en:End Titles

--Завоевание планеты обезьян / Conquest of the Planet of the Apes [Unrated Director's Cut]-- Год выпуска: 1972 г.
Производство: США
Жанр: фантастика, триллер, приключения, боевик
Продолжительность: 01:27:22
Перевод: Профессиональный (многоголосый, закадровый)
Режиссер: Дж. Ли Томпсон / J. Lee Thompson
В ролях: Родди МакДауэлл, Дон Мюррэй, Natalie Trundy, Хари Родс, Severn Darden, Лу Вагнер, Джон Рэндольф, Asa Maynor, H.M. Wynant, Дэвид Чоу, Buck Kartalian, Джон Дэннис, Paul Comi, Гордон Джамп, Дик Спенглер, Джойс Абер, Hector Soucy, Рикардо Монтальбан, Джеймс Бэйкон, Рэйфорд Барнс
Описание: Это четвертая серия из пяти, рассказывающих о жизни на Земле в конце 40-го века от Рождества Христова. Какому идиоту пришло в голову попытаться сделать милых дурашливых обезьянок домашними животными?
Уже никто не знает ответа на этот риторический вопрос, так как люди загнаны в подполье этими самыми симпатичными приматами и только могут изредка огрызаться и вспоминать те времена, когда поумневшие и заматеревшие обезьяны объявили войну человечеству...
--Качество видео: Blu-Ray Rip
Формат видео: MKV
Стандарт разрешения: 1080p
Видео кодек: H.264
Аудио кодек: DTS
Видео: 1920x816 at 23.976 fps, 15.5 Mbps, 0.412
Аудио: 48 kHz, DTS, 3/2 (L,C,R,l,r) + LFE ch, ~1510 kbps avg (Русский, Многоголосый закадровый, «Омикрон»)
Аудио 2: 48 kHz, DTS (L,C,R,l,r) + LFE ch, 1510 kbps (original)
Субтитры: английские
Навигация по главам: есть
General
Complete name : 4.Conquest.of.the.Planet.of.the.Apes.1972.BDRip.1080p.JRG.mkv
Format : Matroska
Format version : Version 2
File size : 11.5 GiB
Duration : 1h 27mn
Overall bit rate : 18.9 Mbps
Movie name : Rip by genkasper for R.G. Jolly Roger
Encoded date : UTC 2012-12-24 17:02:17
Writing application : mkvmerge v5.8.0 ('No Sleep / Pillow') built on Sep 2 2012 15:37:04
Writing library : libebml v1.2.3 + libmatroska v1.3.0
Video
ID : 1
Format : AVC
Format/Info : Advanced Video Codec
Format profile : [email protected]
Format settings, CABAC : Yes
Format settings, ReFrames : 5 frames
Codec ID : V_MPEG4/ISO/AVC
Duration : 1h 27mn
Bit rate : 15.5 Mbps
Nominal bit rate : 17.0 Mbps
Width : 1 920 pixels
Height : 816 pixels
Display aspect ratio : 2.35:1
Frame rate mode : Constant
Frame rate : 23.976 fps
Color space : YUV
Chroma subsampling : 4:2:0
Bit depth : 8 bits
Scan type : Progressive
Bits/(Pixel*Frame) : 0.412
Stream size : 9.44 GiB (82%)
Title : Rip by genkasper for R.G. Jolly Roger
Writing library : x264 core 125 r2200 999b753
Encoding settings : cabac=1 / ref=5 / deblock=1:-2:-2 / analyse=0x3:0x133 / me=umh / subme=11 / psy=1 / psy_rd=1.00:0.00 / mixed_ref=1 / me_range=48 / chroma_me=1 / trellis=2 / 8x8dct=1 / cqm=0 / deadzone=21,11 / fast_pskip=0 / chroma_qp_offset=-2 / threads=9 / lookahead_threads=1 / sliced_threads=0 / nr=0 / decimate=0 / interlaced=0 / bluray_compat=0 / constrained_intra=0 / bframes=10 / b_pyramid=2 / b_adapt=2 / b_bias=0 / direct=3 / weightb=1 / open_gop=0 / weightp=2 / keyint=250 / keyint_min=23 / scenecut=40 / intra_refresh=0 / rc_lookahead=50 / rc=2pass / mbtree=1 / bitrate=17000 / ratetol=1.0 / qcomp=0.70 / qpmin=0 / qpmax=69 / qpstep=4 / cplxblur=20.0 / qblur=0.5 / ip_ratio=1.40 / aq=1:1.00
Language : English
Default : Yes
Forced : No
Audio #1
ID : 2
Format : DTS
Format/Info : Digital Theater Systems
Codec ID : A_DTS
Duration : 1h 27mn
Bit rate mode : Constant
Bit rate : 1 510 Kbps
Channel(s) : 6 channels
Channel positions : Front: L C R, Side: L R, LFE
Sampling rate : 48.0 KHz
Bit depth : 24 bits
Compression mode : Lossy
Stream size : 944 MiB (8%)
Language : Russian
Default : Yes
Forced : No
Audio #2
ID : 3
Format : DTS
Format/Info : Digital Theater Systems
Codec ID : A_DTS
Duration : 1h 27mn
Bit rate mode : Constant
Bit rate : 1 510 Kbps
Channel(s) : 6 channels
Channel positions : Front: L C R, Side: L R, LFE
Sampling rate : 48.0 KHz
Bit depth : 24 bits
Compression mode : Lossy
Stream size : 944 MiB (8%)
Language : English
Default : No
Forced : No
Text
ID : 4
Format : UTF-8
Codec ID : S_TEXT/UTF8
Codec ID/Info : UTF-8 Plain Text
Language : English
Default : No
Forced : No
Menu
00:00:00.000 : en:Main Titles
00:02:22.642 : en:Armando & Caesar
00:05:03.845 : en:From Pets to Slaves
00:11:17.677 : en:A Talking Ape?
00:14:08.598 : en:The Alternate Plan
00:15:53.744 : en:Armando in Custody
00:19:31.545 : en:Hiding in the Open
00:25:52.885 : en:In Training
00:28:05.434 : en:The Females Arrive
00:29:04.868 : en:The Auction
00:31:37.062 : en:Caesar on the Inside
00:37:01.511 : en:The Authenticator
00:41:23.690 : en:Seeds of Rebellion
00:46:59.400 : en:Macdonald's Help
00:51:28.377 : en:Caught & Tortured
00:58:28.839 : en:Revolt of the Apes
01:05:03.274 : en:Night of Violence
01:08:56.049 : en:Riot Control
01:16:21.368 : en:Under Attack
01:22:36.577 : en:Planet of the Apes
01:26:54.209 : en:End Titles

--Битва за планету обезьян / Battle for the Planet of the Apes [Extended Version]-- Год выпуска: 1973 г.
Производство: США
Жанр: фантастика, триллер, приключения, боевик
Продолжительность: 01:36:26
Перевод: Профессиональный (многоголосый, закадровый)
Режиссер: Дж. Ли Томпсон / J. Lee Thompson
В ролях: Родди МакДауэлл, Claude Akins, Natalie Trundy, Severn Darden, Лью Эйрс, Пол Уильямс, Остин Стокер, Ной Кин, Richard Eastham, France Nuyen, Пол Стивенс, Хезер Лоу, Бобби Портер, Michael Stearns, Кэл Уилсон, Pat Cardi, Джон Лэндис, Энди Найт, Джон Хьюстон, Джеймс Бэйкон, Коллин Кэмп
Описание: Все новые и новые опасности приносит как людям, так и обезьянам будущее. На карту поставлена сама возможность существования этих биологических видов. И уже всем становится понятно, что только совместные усилия и выход на новый уровень взаимодействия дадут шанс планете в надвигающейся череде катастроф... --Качество видео: Blu-Ray Rip
Формат видео: MKV
Стандарт разрешения: 1080p
Видео кодек: H.264
Аудио кодек: DTS
Видео: 1920x816 at 23.976 fps, 11 Mbps, 0.293
Аудио: 48 kHz, DTS, 3/2 (L,C,R,l,r) + LFE ch, ~1510 kbps avg (Русский, Многоголосый закадровый, «Омикрон»)
Аудио 2: 48 kHz, DTS (L,C,R,l,r) + LFE ch, 1510 kbps (original)
Субтитры: английские
Навигация по главам: есть
General
Complete name : 5.Battle.for.the.Planet.of.the.Apes.1973.BDRip.1080p.JRG.mkv
Format : Matroska
Format version : Version 2
File size : 9.45 GiB
Duration : 1h 36mn
Overall bit rate : 14.0 Mbps
Movie name : Rip by genkasper for R.G. Jolly Roger
Encoded date : UTC 2012-12-24 17:28:00
Writing application : mkvmerge v5.8.0 ('No Sleep / Pillow') built on Sep 2 2012 15:37:04
Writing library : libebml v1.2.3 + libmatroska v1.3.0
Video
ID : 1
Format : AVC
Format/Info : Advanced Video Codec
Format profile : [email protected]
Format settings, CABAC : Yes
Format settings, ReFrames : 5 frames
Codec ID : V_MPEG4/ISO/AVC
Duration : 1h 36mn
Bit rate : 11.0 Mbps
Width : 1 920 pixels
Height : 816 pixels
Display aspect ratio : 2.35:1
Frame rate mode : Constant
Frame rate : 23.976 fps
Color space : YUV
Chroma subsampling : 4:2:0
Bit depth : 8 bits
Scan type : Progressive
Bits/(Pixel*Frame) : 0.293
Stream size : 7.22 GiB (76%)
Title : Rip by genkasper for R.G. Jolly Roger
Writing library : x264 core 125 r2200 999b753
Encoding settings : cabac=1 / ref=5 / deblock=1:-2:-2 / analyse=0x3:0x133 / me=umh / subme=11 / psy=1 / psy_rd=1.00:0.00 / mixed_ref=1 / me_range=48 / chroma_me=1 / trellis=2 / 8x8dct=1 / cqm=0 / deadzone=21,11 / fast_pskip=0 / chroma_qp_offset=-2 / threads=9 / lookahead_threads=1 / sliced_threads=0 / nr=0 / decimate=0 / interlaced=0 / bluray_compat=0 / constrained_intra=0 / bframes=10 / b_pyramid=2 / b_adapt=2 / b_bias=0 / direct=3 / weightb=1 / open_gop=0 / weightp=2 / keyint=250 / keyint_min=23 / scenecut=40 / intra_refresh=0 / rc_lookahead=50 / rc=2pass / mbtree=1 / bitrate=11000 / ratetol=1.0 / qcomp=0.70 / qpmin=0 / qpmax=69 / qpstep=4 / cplxblur=20.0 / qblur=0.5 / ip_ratio=1.40 / aq=1:1.00
Language : English
Default : Yes
Forced : No
Audio #1
ID : 2
Format : DTS
Format/Info : Digital Theater Systems
Codec ID : A_DTS
Duration : 1h 36mn
Bit rate mode : Constant
Bit rate : 1 510 Kbps
Channel(s) : 6 channels
Channel positions : Front: L C R, Side: L R, LFE
Sampling rate : 48.0 KHz
Bit depth : 24 bits
Compression mode : Lossy
Stream size : 1.02 GiB (11%)
Language : Russian
Default : Yes
Forced : No
Audio #2
ID : 3
Format : DTS
Format/Info : Digital Theater Systems
Codec ID : A_DTS
Duration : 1h 36mn
Bit rate mode : Constant
Bit rate : 1 510 Kbps
Channel(s) : 6 channels
Channel positions : Front: L C R, Side: L R, LFE
Sampling rate : 48.0 KHz
Bit depth : 24 bits
Compression mode : Lossy
Stream size : 1.02 GiB (11%)
Language : English
Default : No
Forced : No
Text
ID : 4
Format : UTF-8
Codec ID : S_TEXT/UTF8
Codec ID/Info : UTF-8 Plain Text
Language : English
Default : No
Forced : No
Menu
00:00:00.000 : en:The Lawgiver
00:04:47.454 : en:Main Titles
00:09:15.013 : en:Ape Shall Never Kill Ape
00:11:13.965 : en:The Unspeakable
00:15:46.696 : en:Pessimist or Prophet?
00:21:46.180 : en:Self-Protection
00:24:41.188 : en:Journey to the Dead City
00:27:49.585 : en:Intruder Alert
00:31:52.953 : en:The Archives
00:37:38.339 : en:Under Fire
00:40:25.548 : en:Narrow Escape
00:45:07.246 : en:Spies in Ape City
00:46:53.727 : en:Meeting of the Council
00:48:50.177 : en:The Governor's Orders
00:52:09.209 : en:Preparing for War
00:53:18.695 : en:The Plot Against Caesar
00:55:16.521 : en:Fallen Prince
00:57:47.881 : en:Mutants on the March
01:00:51.398 : en:First Blood
01:03:03.655 : en:Aldo's Orders
01:08:43.202 : en:As Tall as a King
01:10:21.759 : en:The Mutants Attack
01:19:13.791 : en:"Now, Fight Like Apes!"
01:22:46.628 : en:No Prisoners
01:24:19.262 : en:"Ape Has Killed Ape"
01:30:49.569 : en:Building the Future
01:32:20.285 : en:To Begin Again
01:35:29.307 : en:End Titles

--
Download / Скачать

Хотите скачать бесплатно? Зарегистрируйтесь на сайте (ссылка на регистрацию). Pirat.ca - самый быстрый торрент трекер в рунете!

Как скачивать  ·   Что такое торрент  ·   Рейтинг и ограничения

vrodeden11

Лоцман

Пост 24-Дек-2012 23:47 (спустя 1 час 38 минут)

[Q] 

Фильм старый но как и Звездные войны, готов пересматривать его бесконечно.
Респект автору за отличное качество.
[Профиль]  [ЛС] 

Raziel

3819

Пост 28-Дек-2012 14:44 (спустя 3 дня)

[Q] 

Шикарная сборка! А кто автор рипов?

_________________
Иди за солнцем следом, хоть этот путь неведом,
Иди, мой друг, всегда иди дорогою добра.
PiratRadio - Радио Pirat.ca
[Профиль]  [ЛС] 

Raziel

3819

Пост 28-Дек-2012 14:48 (спустя 4 минуты)

[Q] 

Всё вопрос отменён, genkasper - aa
Пишите в теме авторство, страна должна знать своих героев!

_________________
Иди за солнцем следом, хоть этот путь неведом,
Иди, мой друг, всегда иди дорогою добра.
PiratRadio - Радио Pirat.ca
[Профиль]  [ЛС] 

Disturb

Шкипер

Пост 07-Янв-2013 01:26 (спустя 9 дней)

[Q] 


_________________
Никогда не сдавайся и ты увидишь как сдаются другие...
[Профиль]  [ЛС] 

drtom

Морской Волк

36

Пост 31-Янв-2013 14:51 (спустя 24 дня)

[Q] 

Михалева бы... где-то же он есть на все серии... Да и Горчакова и Живова бы добавить - где-то на рутру видел...
[Профиль]  [ЛС] 

CHARLI2236

1231

Пост 23-Июл-2013 23:41 (спустя 5 месяцев 23 дня)

[Q] 

1

_________________
[Профиль]  [ЛС] 

shoroh

Морской Волк

Пост 02-Дек-2013 21:53 (спустя 4 месяца 9 дней)

[Q] 

Скорость как у черепахи !!!!!!!!!!!!!!!!!!!!!!!!!!
[Профиль]  [ЛС] 

Nickoljas

Морской Волк

Пост 26-Янв-2014 23:38 (спустя 1 месяц 24 дня)

[Q] 

хорошие фильмы! Супер!
[Профиль]  [ЛС] 

CBuHKo

Лоцман

Пост 20-Апр-2014 18:38 (спустя 2 месяца 24 дня)

[Q] 

Внимание в конце четвертой части не хватает видео-ряда минут на 15 только звук ... возможно так скачалось.
Посмотрите по подробнее кто скачал. Спасибо.
[Профиль]  [ЛС] 

ГРЕВ

Корсар

Пост 20-Июл-2015 20:50 (спустя 1 год 3 месяца)

[Q] 

Автору респект!!!

_________________
Я ЗДЕСЬ, Я ТАМ, Я ВСЕГДА...
[Профиль]  [ЛС] 

Прораб

Легенда

Пост 23-Окт-2015 20:50 (спустя 3 месяца 2 дня)

[Q] 

Спасибо!!!
---------------
Спасибо!!!
Лови бочку
[Профиль]  [ЛС] 

Exciter1203

Шкипер

Пост 09-Фев-2018 19:46 (спустя 2 года 3 месяца)

[Q] 

Спасибо___ !COOL!
[Профиль]  [ЛС] 
Показать сообщения:    
Ответить на тему

Текущее время: Сегодня 06:22

Часовой пояс: GMT + 4



Вы не можете начинать темы
Вы не можете отвечать на сообщения
Вы не можете редактировать свои сообщения
Вы не можете удалять свои сообщения
Вы не можете голосовать в опросах
Вы не можете прикреплять файлы к сообщениям
Вы не можете скачивать файлы

Майнать ▼