Дело храбрых / Only the Brave (Джозеф Косински / Joseph Kosinski) [2017 г., драма, биография, BDRip-AVC] MVO [HDrezka Studio] + Sub (Rus)

Ответить на тему
 
Автор
Сообщение

Пост 10-Фев-2018 10:34

[Q] 

aleksey99

--Дело храбрых / Only the Brave--«It's Not What Stands In Front Of You, It's Who Stands Beside You»-- Производство: США
Год выпуска: 2017 г.
Жанр: драма, биография
Продолжительность: 02:14:03--Мировая премьера: 18 октября 2017
Российская премьера: 9 ноября 2017, «Централ Партнершип»--Перевод: многоголосый, закадровый [HDrezka Studio]--Режиссер: Джозеф Косински / Joseph Kosinski--В ролях: Джош Бролин, Майлз Теллер, Джефф Бриджес, Джеймс Бэдж Дэйл, Тейлор Китч, Дженнифер Коннелли, Скотт Хэйз, Алекс Расселл, Бен Харди, Натали Холл--Описание: История о команде пожарных под названием Granite Mountain Hotshots, столкнувшихся в Аризоне с одним из самых смертоносных пожаров в истории.-- --Качество видео: BDRip-AVC
Контейнер: MKV
Видео кодек: AVC/H.264
Аудио кодек: AC3
Видео: x264, 1024x428 (2,40:1), 2207 kbps, 23,976 fps, 0.210 bit/pixel
Аудио: 48 kHz, AC3 Dolby Digital, 2/0 (L,R) ch, ~192 kbps
Cубтитры: русские.
Общее
Уникальный идентификатор : 230721973274806205087971463911917369160 (0xAD936F8B12317A322A8A9C01850E3748)
Полное имя : H:\Torrent2\Дело храбрых.2017.BDRip-AVC.mkv
Формат : Matroska
Версия формата : Version 4 / Version 2
Размер файла : 2,25 Гбайт
Продолжительность : 2 ч. 14 м.
Общий поток : 2401 Кбит/сек
Дата кодирования : UTC 2018-02-08 18:31:03
Программа кодирования : mkvmerge v20.0.0 ('I Am The Sun') 64-bit
Библиотека кодирования : libebml v1.3.5 + libmatroska v1.4.8
Видео
Идентификатор : 1
Формат : AVC
Формат/Информация : Advanced Video Codec
Профиль формата : [email protected]
Настройки формата : CABAC / 12 Ref Frames
Параметр CABAC формата : Да
Параметр RefFrames формата : 12 кадров
Идентификатор кодека : V_MPEG4/ISO/AVC
Продолжительность : 2 ч. 14 м.
Битрейт : 2207 Кбит/сек
Ширина : 1024 пикселя
Высота : 428 пикселей
Соотношение сторон : 2,40:1
Режим частоты кадров : Постоянный
Частота кадров : 23,976 (24000/1001) кадра/сек
Цветовое пространство : YUV
Субдискретизация насыщенности : 4:2:0
Битовая глубина : 8 бит
Тип развёртки : Прогрессивная
Бит/(Пиксели*Кадры) : 0.210
Размер потока : 2,07 Гбайт (92%)
Библиотека кодирования : x264 core 146 r2538 121396c
Настройки программы : cabac=1 / ref=12 / deblock=1:-3:-3 / analyse=0x3:0x133 / me=umh / subme=11 / psy=1 / psy_rd=1.00:0.10 / mixed_ref=1 / me_range=32 / chroma_me=1 / trellis=2 / 8x8dct=1 / cqm=0 / deadzone=21,11 / fast_pskip=0 / chroma_qp_offset=-3 / threads=12 / lookahead_threads=3 / sliced_threads=0 / nr=0 / decimate=0 / interlaced=0 / bluray_compat=0 / constrained_intra=0 / bframes=9 / b_pyramid=2 / b_adapt=2 / b_bias=0 / direct=3 / weightb=1 / open_gop=0 / weightp=2 / keyint=240 / keyint_min=23 / scenecut=40 / intra_refresh=0 / rc=2pass / mbtree=0 / bitrate=2207 / ratetol=1.0 / qcomp=0.60 / qpmin=0 / qpmax=69 / qpstep=4 / cplxblur=20.0 / qblur=0.5 / ip_ratio=1.40 / pb_ratio=1.30 / aq=1:0.90
Язык : English
Default : Да
Forced : Нет
Аудио
Идентификатор : 2
Формат : AC-3
Формат/Информация : Audio Coding 3
Идентификатор кодека : A_AC3
Продолжительность : 2 ч. 14 м.
Вид битрейта : Постоянный
Битрейт : 192 Кбит/сек
Каналы : 2 канала
Расположение каналов : Front: L R
Частота : 48,0 КГц
Частота кадров : 31,250 кадров/сек (1536 SPF)
Битовая глубина : 16 бит
Метод сжатия : С потерями
Размер потока : 184 Мбайт (8%)
Язык : Russian
ServiceKind/String : Complete Main
Default : Да
Forced : Нет
Текст
Идентификатор : 3
Формат : UTF-8
Идентификатор кодека : S_TEXT/UTF8
Идентификатор кодека/Информация : UTF-8 Plain Text
Продолжительность : 2 ч. 3 м.
Битрейт : 89 бит/сек
ElementCount : 1888
Размер потока : 80,8 Кбайт (0%)
Язык : Russian
Default : Нет
Forced : Нет
Меню
00:00:00.000 : :Chapter 01
00:06:39.107 : :Chapter 02
00:16:14.891 : :Chapter 03
00:26:30.297 : :Chapter 04
00:34:26.856 : :Chapter 05
00:43:54.298 : :Chapter 06
00:51:29.336 : :Chapter 07
00:59:18.430 : :Chapter 08
01:08:27.312 : :Chapter 09
01:16:19.366 : :Chapter 10
01:24:16.468 : :Chapter 11
01:32:51.524 : :Chapter 12
01:39:07.567 : :Chapter 13
01:45:11.972 : :Chapter 14
01:52:54.935 : :Chapter 15
02:02:04.776 : :Chapter 16
ТрейлерБЕЗ РЕКЛАМЫ!
Download / Скачать

Хотите скачать бесплатно? Зарегистрируйтесь на сайте (ссылка на регистрацию). Pirat.ca - самый быстрый торрент трекер в рунете!

Как скачивать  ·   Что такое торрент  ·   Рейтинг и ограничения

zvezda_2s

Флибустьер

Пост 10-Фев-2018 11:45 (спустя 1 час 11 минут)

[Q] 

Отзывов по ходу нету...
[Профиль]  [ЛС] 

black63

Шкипер

Пост 10-Фев-2018 16:34 (спустя 4 часа)

[Q] 

Рейтинг Хорош глянем.
[Профиль]  [ЛС] 

kinstintin

Легенда

Пост 10-Фев-2018 21:25 (спустя 4 часа)

[Q] 

Спасибо!!!
Автору респект!!!
[Профиль]  [ЛС] 

garychman

Лоцман

Пост 16-Фев-2018 00:24 (спустя 5 дней)

[Q] 

Товарищ Автор! Попробуй сам скачать сэмпл!
[Профиль]  [ЛС] 

Полтос

Гроза морей

Пост 18-Фев-2018 21:54 (спустя 2 дня 21 час)

[Q] 

Удивительно, как такой билиберде поставили столь высокий рейтинг? Тупейшее и чисто пиндосское кино про тупую команду пожарников, окапывающих участки и палящих всё на пути пожара. На кой чёрт учиться за время кутаться в защитный чехол, если в нём приготовляешься, как курица в мешке для жарки... Видимо, из разряда местных хероев...
Трафик потрачен зря! На любителя

_________________
Первый закон Прапорщика: Всё что поднимаемо - относительно!)
[Профиль]  [ЛС] 

chuvak600

Лоцман

Пост 23-Фев-2018 14:22 (спустя 4 дня)

[Q] 

Вроде как фильм основан на реальных событиях
[Профиль]  [ЛС] 

Sharifulla

Корсар

Пост 05-Мар-2018 15:02 (спустя 10 дней)

[Q] 

Хороший фильм про пожарников. Автору респект Спасибо!!! Лови бочку
[Профиль]  [ЛС] 

Glife

Легенда

Пост 07-Мар-2018 16:06 (спустя 2 дня 1 час)

[Q] 

Пожар штука страшная и глупая - национальности не разбирает.
Хотя местами фильм на скаутские тренировки похож.

_________________
Дорогу осилит идущий.
[Профиль]  [ЛС] 

Mustafa Sazont

Корсар

Пост 11-Май-2018 15:09 (спустя 2 месяца 3 дня)

[Q] 

Вот уж точно Дело храбрых! Отличный фильм на реальных событиях.
В армии служил пожарным-водителем в Архангельской тайге. Что такое лесной пожар знаю не по-наслышке: тушить очень тяжело, особенно если ветер.
Светлая память всем погибшим пожарным независимо от страны и национальности!
[Профиль]  [ЛС] 

the_lame

Флибустьер

Пост 19-Май-2018 12:07 (спустя 7 дней)

[Q] 

А мне понравился фильм. Про мужиков.
[Профиль]  [ЛС] 
Показать сообщения:    
Ответить на тему

Текущее время: Сегодня 08:59

Часовой пояс: GMT + 4



Вы не можете начинать темы
Вы не можете отвечать на сообщения
Вы не можете редактировать свои сообщения
Вы не можете удалять свои сообщения
Вы не можете голосовать в опросах
Вы не можете прикреплять файлы к сообщениям
Вы не можете скачивать файлы

Майнать ▼