Уважаемый Гость!
Вы можете поддержать проект и зарегистрироваться у наших партнеров - онлайн-стратегия MyLands. При регистрации в игре Вы получите код, который сможете активировать после регистрации на pirat.ca и получить 1000 дублонов.

Ваш код:
682fda369db314ffc3bf18d836fce8f4c6b7be8f
 
     

Kingsman: Золотое кольцо / Kingsman: The Golden Circle (Мэттью Вон / Matthew Vaughn) [2017 г., боевик, комедия, приключения, BDRip-AVC] Dub [Лицензия] + Original (Eng) + Sub (Rus, Eng)

Ответить на тему
 
Автор
Сообщение

Пост 29-Дек-2017 09:49

[Q] 

aleksey99

--Kingsman: Золотое кольцо / Kingsman: The Golden Circle--«Reports of my death have been greatly exaggerated»-- Производство: Великобритания, США / 20th Century Fox Film Corporation, Marv Films, Shangri-La Entertainment, TSG Entertainment
Год выпуска: 2017 г.
Жанр: боевик, комедия, приключения
Продолжительность: 02:21:02--Мировая премьера: 20 сентября 2017
Российская премьера: 21 сентября 2017, «Двадцатый Век Фокс СНГ»
Цифровой релиз: 29 декабря 2017, «Двадцатый Век Фокс СНГ»--Перевод: Профессиональный (полное дублирование) [Лицензия]
Оригинальный аудиопоток: английский--Режиссер: Мэттью Вон / Matthew Vaughn--В ролях: Колин Фёрт, Тэрон Эджертон, Эдвард Холкрофт, Гордон Александр, Марк Стронг, Ханна Альстрём, Кэлвин Демба, Томас Тургус, Тоби Бакаре, Джулианна Мур--Описание: Когда штаб-квартиры секретной службы Kingsman уничтожены, и весь мир оказался в заложниках у неизвестных, британские суперагенты обнаруживают, что в один день вместе с их организацией была еще создана американская разведка — Statesman. Теперь эти две элитные спецслужбы должны объединиться и бросить вызов общему безжалостному врагу, чтобы спасти мир, то есть заняться тем, что для Эггси становится обычным делом…-- --Качество видео: BDRip-AVC
Контейнер: MKV
Видео кодек: AVC/H.264
Аудио кодек: AC3
Видео: AVC, 1032x432 (2.40:1), 23.976 fps, 2057 Kbps, 0.192 bit/pixel
Аудио 1: 48 kHz, AC3 Dolby Digital, 3/2 (L,C,R,l,r) + LFE ch, ~448 kbps RUS
Аудио 2: 48 kHz, AC3 Dolby Digital, 3/2 (L,C,R,l,r) + LFE ch, ~448 kbps ENG
Cубтитры: русские (форс., стилизованные, хардсаб), английские (Full), английские (SDH), английские (SDH-Colored) .
Общее
Уникальный идентификатор : 175567048516465852746805465148326852170 (0x8414FBCD1D695A4F9CFC05BEB3E2B64A)
Полное имя : H:\Torrent2\Kingsman.Zolotoye.Koltco.2017.DUAL.BDRip.x264.mkv
Формат : Matroska
Версия формата : Version 4 / Version 2
Размер файла : 2,91 Гбайт
Продолжительность : 2 ч. 21 м.
Общий поток : 2955 Кбит/сек
Название фильма : Kingsman: The Golden Circle (2017)
Дата кодирования : UTC 2018-01-20 07:29:54
Программа кодирования : mkvmerge v5.9.0 ('On The Loose') built on Dec 15 2012 16:39:58
Библиотека кодирования : libebml v1.3.0 + libmatroska v1.4.0
Видео
Идентификатор : 1
Формат : AVC
Формат/Информация : Advanced Video Codec
Профиль формата : [email protected]
Настройки формата : CABAC / 10 Ref Frames
Параметр CABAC формата : Да
Параметр RefFrames формата : 10 кадров
Идентификатор кодека : V_MPEG4/ISO/AVC
Продолжительность : 2 ч. 21 м.
Битрейт : 2057 Кбит/сек
Ширина : 1032 пикселя
Высота : 432 пикселя
Соотношение сторон : 2,40:1
Режим частоты кадров : Постоянный
Частота кадров : 23,976 (24000/1001) кадра/сек
Цветовое пространство : YUV
Субдискретизация насыщенности : 4:2:0
Битовая глубина : 8 бит
Тип развёртки : Прогрессивная
Бит/(Пиксели*Кадры) : 0.192
Размер потока : 1,97 Гбайт (68%)
Заголовок : potroks
Библиотека кодирования : x264 core 148 r2638 7599210
Настройки программы : cabac=1 / ref=10 / deblock=1:-1:-1 / analyse=0x3:0x113 / me=umh / subme=11 / psy=1 / psy_rd=1.00:0.10 / mixed_ref=1 / me_range=48 / chroma_me=1 / trellis=2 / 8x8dct=1 / cqm=0 / deadzone=21,11 / fast_pskip=0 / chroma_qp_offset=-3 / threads=9 / lookahead_threads=2 / sliced_threads=0 / nr=0 / decimate=0 / interlaced=0 / bluray_compat=0 / constrained_intra=0 / bframes=12 / b_pyramid=2 / b_adapt=2 / b_bias=0 / direct=3 / weightb=1 / open_gop=0 / weightp=2 / keyint=240 / keyint_min=23 / scenecut=40 / intra_refresh=0 / rc_lookahead=60 / rc=2pass / mbtree=0 / bitrate=2057 / ratetol=1.0 / qcomp=0.70 / qpmin=0 / qpmax=69 / qpstep=4 / cplxblur=20.0 / qblur=0.5 / vbv_maxrate=14000 / vbv_bufsize=14000 / nal_hrd=none / filler=0 / ip_ratio=1.35 / pb_ratio=1.25 / aq=1:0.80
Язык : English
Default : Да
Forced : Нет
Аудио #1
Идентификатор : 2
Формат : AC-3
Формат/Информация : Audio Coding 3
Идентификатор кодека : A_AC3
Продолжительность : 2 ч. 21 м.
Вид битрейта : Постоянный
Битрейт : 448 Кбит/сек
Каналы : 6 каналов
Расположение каналов : Front: L C R, Side: L R, LFE
Частота : 48,0 КГц
Частота кадров : 31,250 кадров/сек (1536 SPF)
Битовая глубина : 16 бит
Метод сжатия : С потерями
Размер потока : 452 Мбайт (15%)
Заголовок : Dub | DD 5.1 @ 448 kbps - Blu-ray CEE
Язык : Russian
ServiceKind/String : Complete Main
Default : Да
Forced : Нет
Аудио #2
Идентификатор : 3
Формат : AC-3
Формат/Информация : Audio Coding 3
Идентификатор кодека : A_AC3
Продолжительность : 2 ч. 21 м.
Вид битрейта : Постоянный
Битрейт : 448 Кбит/сек
Каналы : 6 каналов
Расположение каналов : Front: L C R, Side: L R, LFE
Частота : 48,0 КГц
Частота кадров : 31,250 кадров/сек (1536 SPF)
Битовая глубина : 16 бит
Метод сжатия : С потерями
Размер потока : 452 Мбайт (15%)
Заголовок : Original | DD 5.1 @ 448 kbps
Язык : English
ServiceKind/String : Complete Main
Default : Нет
Forced : Нет
Текст #1
Идентификатор : 4
Формат : UTF-8
Идентификатор кодека : S_TEXT/UTF8
Идентификатор кодека/Информация : UTF-8 Plain Text
Заголовок : iTunes
Язык : Russian
Default : Нет
Forced : Нет
Текст #2
Идентификатор : 5
Формат : UTF-8
Идентификатор кодека : S_TEXT/UTF8
Идентификатор кодека/Информация : UTF-8 Plain Text
Заголовок : Full
Язык : English
Default : Нет
Forced : Нет
Текст #3
Идентификатор : 6
Формат : UTF-8
Идентификатор кодека : S_TEXT/UTF8
Идентификатор кодека/Информация : UTF-8 Plain Text
Заголовок : SDH
Язык : English
Default : Нет
Forced : Нет
Текст #4
Идентификатор : 7
Формат : UTF-8
Идентификатор кодека : S_TEXT/UTF8
Идентификатор кодека/Информация : UTF-8 Plain Text
Заголовок : SDH-Colored
Язык : English
Default : Нет
Forced : Нет
Меню
00:00:00.000 : :Chapter 01
00:04:51.958 : :Chapter 02
00:09:39.454 : :Chapter 03
00:13:36.607 : :Chapter 04
00:18:54.300 : :Chapter 05
00:24:57.287 : :Chapter 06
00:28:43.347 : :Chapter 07
00:32:52.304 : :Chapter 08
00:39:18.731 : :Chapter 09
00:43:21.849 : :Chapter 10
00:48:26.570 : :Chapter 11
00:53:54.106 : :Chapter 12
00:58:31.258 : :Chapter 13
01:05:04.901 : :Chapter 14
01:09:52.522 : :Chapter 15
01:13:34.744 : :Chapter 16
01:19:41.860 : :Chapter 17
01:23:45.103 : :Chapter 18
01:28:55.288 : :Chapter 19
01:33:25.225 : :Chapter 20
01:40:14.759 : :Chapter 21
01:45:03.255 : :Chapter 22
01:49:38.489 : :Chapter 23
01:55:15.992 : :Chapter 24
02:01:40.835 : :Chapter 25
02:05:44.036 : :Chapter 26
02:12:36.407 : :Chapter 27
02:15:15.274 : :Chapter 28
Трейлер
Download / Скачать

Хотите скачать бесплатно? Зарегистрируйтесь на сайте (ссылка на регистрацию). Pirat.ca - самый быстрый торрент трекер в рунете!

Как скачивать  ·   Что такое торрент  ·   Рейтинг и ограничения



Последний раз редактировалось: aleksey99 (2018-01-21 07:59), всего редактировалось 1 раз

alersander

Корсар

Пост 30-Дек-2017 00:29 (спустя 14 часов)

[Q] 

Очень веселый боевичёк с юмором, на раз даже очень рекомендую посмотреть.
Лови бочку
[Профиль]  [ЛС] 

studentUA

Корсар

56

Пост 30-Дек-2017 02:47 (спустя 2 часа 17 минут)

[Q] 

за ценим, первый был неплох
[Профиль]  [ЛС] 

fishman

Флибустьер

Пост 31-Дек-2017 19:10 (спустя 1 день 16 часов)

[Q] 

Спасибо!!! rum

_________________
|___|___|___|___|___|___|___|__|__
__|__|__|_Биться головой_|___|___|
|___|___|___|__сюда!!___|___|__|__
__|___|___|___|___|___|___|__|__
[Профиль]  [ЛС] 

msss

Корсар

Пост 01-Янв-2018 16:51 (спустя 21 час)

[Q] 

Фильм огонь, ожидаемо не разочаровал!)
[Профиль]  [ЛС] 

lightmaster

Гроза морей

Пост 02-Янв-2018 13:24 (спустя 20 часов)

[Q] 

Кино очень неплохое, берем!!! Раздающему респект! и Лови бочку
[Профиль]  [ЛС] 

vladimir_vs

Морской Волк

Пост 02-Янв-2018 14:58 (спустя 1 час 33 минуты)

[Q] 

Разрекламирован, но не оправдал ожидания. Да есть неплохие сцены, куча спецэфектов, но сюжет высасан из пальца. Фильм разочаровал только тройку можно ему поставить. Первая была значительно лучше. А тут столько тупизма и прочего раздолбайства, что смотреть не тянет. Смотрел но плевался. Не советую.

_________________
Мир реальный - лишь грезы,
Все в нем - сон, полуложь,
Радость, боль и угроза -
Все иначе, чем ждешь.
[Профиль]  [ЛС] 

Мания величия

Морской Волк

Пост 05-Янв-2018 01:51 (спустя 2 дня 10 часов)

[Q] 

а мне чет не понравился сюжет больше смахивает на КОМЕДИЮ чем боевик или приключения вобщем юмор хоть и был НО не пошел уж на любителя!!! На любителя

_________________
[Профиль]  [ЛС] 

kolopolk

Морской Волк

Пост 14-Янв-2018 09:45 (спустя 9 дней)

[Q] 

816065а мне чет не понравился сюжет больше смахивает на КОМЕДИЮ чем боевик или приключения вобщем юмор хоть и был НО не пошел уж на любителя!!! На любителя
Вообще-то это комедия и есть.
[Профиль]  [ЛС] 

aleksey99 ®

304069

Пост 21-Янв-2018 08:00 (спустя 6 дней)

[Q] 

Замена на Лицензию

_________________

[Профиль]  [ЛС] 

денис19780923

Шкипер

Пост 31-Янв-2018 19:58 (спустя 10 дней)

[Q] 

много эффектов но,фильм так себе.просто фентази какое-то.любителям фентази понравится.
[Профиль]  [ЛС] 

Barskavkaz

Корсар

Пост 01-Фев-2018 15:47 (спустя 19 часов)

[Q] 

первая часть была более интересной

_________________
Д.Тк
[Профиль]  [ЛС] 

Пост 09-Фев-2018 16:52 (спустя 8 дней)

Топик был перенесен из форума Новинки (HD|DVD|BD| TV|SAT|PDTV| - Rips) в форум Фильмы 2010 - 2017 г.г.
aleksey99
 

lexaspirit

Пост 12-Фев-2018 20:49 (спустя 11 дней)

[Q] 

Что первая, так и вторая часть очень понравилась. Одобрямс!

_________________
-------------------- ----------------------
[Профиль]  [ЛС] 
Показать сообщения:    
Ответить на тему

Текущее время: Сегодня 11:48

Часовой пояс: GMT + 4



Вы не можете начинать темы
Вы не можете отвечать на сообщения
Вы не можете редактировать свои сообщения
Вы не можете удалять свои сообщения
Вы не можете голосовать в опросах
Вы не можете прикреплять файлы к сообщениям
Вы не можете скачивать файлы

▼ Вниз