Рэтчет и Кланк: Галактические рейнджеры / Ratchet & Clank (Кевин Манро / Kevin Munroe, ...) [2016 г., мультфильм, фантастика, семейный, 6+, BDRip, 1080p, Half OverUnder / Вертикальная анаморфная стереопара] Dub [iTunes RUS,UKR] + Sub (Eng)

Ответить на тему
 
Автор
Сообщение

Пост 14-Ноя-2016 21:58

[Q] 

somik

-Рэтчет и Кланк: Галактические рейнджеры / Ratchet & Clank-- Производство: Гонконг, Канада, США
Год выпуска: 2016 г.
Жанр: мультфильм, фантастика, боевик, комедия, приключения, семейный, 6+
Продолжительность: 01:34:05
Мировая премьера: 13 апреля 2016
Российская премьера: 5 мая 2016, «Централ Партнершип»
Дата выхода DVD: 28 сентября 2016, «НД Плэй»
Перевод: Профессиональный (полное дублирование) [iTunes RUS]
Перевод 2: Профессиональный (полное дублирование) [iTunes UKR]
Режиссер: Кевин Манро / Kevin Munroe, ...-В ролях: Ratchet - Джеймс Арнольд Тейлор (Николай Быстров), Clank - Дэвид Кэй (Дмитрий Филимонов), Captain Qwark - Джим Уорд (Сергей Чихачев), Blargs / Blargian PR Man - Йен Джеймс Корлетт, Zed / Blarg - Эндрю Каунден, Elaris - Розарио Доусон, Dallas Wannamaker / Announcer / Drek Computer - Брайан Добсон, Inspectobot / Warbot / Zurkons - Брайан Драммонд, Chairman Drek - Пол Джаматти, Grimroth - Джон Гудман, Victor Von Ion - Сильвестр Сталлоне, Денис Строев, Дмитрий Поляновский, Илья Исаев, Сергей Смирнов, Татьяна Шитова, Константин Карасик-Описание: Большеухий ловкач Рэтчет всегда мечтал присоединиться к Галактическим космическим рейнджерам, но самовлюбленный супергерой Капитан Кварк не принимает его в команду. И все же, когда робот Кланк приносит весть о коварном плане злодея Дрека из расы Блэрг создать новую планету для своего вида, предварительно избавившись от рейнджеров и уничтожив Солнечную систему, миссия по спасению галактики ложится именно на пушистые плечи остряка Рэтчета. А металлический Кланк становится его верным спутником и помощником.-
Качество видео: BDRip
Качество видео: 3D / Half OverUnder / Вертикальная анаморфная стереопара
Контейнер: MKV
Стандарт разрешения: 1080p
Видео кодек: MPEG4 AVC
Аудио кодек: AC3
Видео: 1920х1080p / 23,976 fps / 7029 Kbps
Аудио: Русский / AC3 / 48 KHz / 5.1 ch / 384 Kbps (Дубляж - iTunes)
Аудио #2: Украинский / AC3 / 48 KHz / 2 ch / 192 Kbps (Дубляж - iTunes)
Аудио #3: Английский / AC3 / 48 KHz / 5.1 ch / 640 Kbps (Original - BD 3D Fre)
Cубтитры: английские
Формат субтитров: softsub (SRT)
Доп. информация о субтитрах: включаемые
Достойная экранизация игры
Хороший мультфильм с качественным юмором, визуально красивый, не уступающий дорогим масштабным проектам.
Сюжет самодостаточный и сохраняет интригу до конца — людям, не знакомым с играми, не придется обращаться к источнику для лучшего понимания. Он рассчитан не только на новую аудиторию, но и на фанатов, имеет отсылки к другим частям данной серии и некоторым играм Playstation.
Главные герои милые, притягивают внимание к себе. В этом плане позволю себе сравнить мультфильм с классикой Диснея — на картинку очень приятно смотреть, она доставляет эстетическое удовольствие.
Красочность и разнообразие мест действия и персонажей во многом повторяет игровой сериал, но в чуть меньшем масштабе. Много интересного экшна.
Есть несколько актуальных шуток про современное общество.
9 из 10
Ну наконец-то! Довелось на днях посмотреть необычный мультфильм Рэтчет и Кланк. Необычный он в первую очередь тем, что создан по мотивам знаменитой серии игр на игровых приставках семейства PlayStation. Дело в том, что совсем недавно на PlayStation 4 состоялся выход ремейка самой первой части игры в этой вселенной. И получилось так, что данный мультфильм основан на игре 2016 года, которая в свою очередь основана на игре 2002-го. Ну, конечно, с правками и дополнениями. Т. е. новая игра и мультфильм тесно взаимосвязаны и рассказывают один сюжет. Но в игре событий происходит побольше т. к. вместить в полуторачасовой мультфильм явно всё не вышло бы. И, знаете, очень здорово, что в Сони наконец-то взялись за эту вселенную с таким размахом т. к. игрушки серии всегда поражали сочностью картинки, колоритными персонажами, а особенно злодеями, и уникальным юмором. Герои так и просились за пределы игр, и это-таки произошло.
С одной стороны — для тех, кто не знаком с играми серии это просто новый красочный мультфильм с интересными героями, которые регулярно выходят в прокат для малышей и их родителей, а с другой стороны — это долгожданная полноценная история для огромной толпы фанатов игровых приключений забавного большеухого героя и его остроумного компаньона робота. Угодили ли обоим группам создатели? Безусловно! Практически все атрибуты игровой серии перекочевали и в мультфильм, а юмор так ещё и осовременили. А для фанатов так завезли и ворох всяческих игровых гик-отсылок.
Если же вы вообще не в теме про игры, то ничего страшного, ведь вникнуть в происходящее не составит абсолютно никакого труда, а после просмотра, вероятно, захочется и в игру поиграть — посмотреть, так сказать, развернутую историю, да ещё и собственноручно порулить процессом. Хотя вот и минус для фанатов — если игра уже пройдена, то мультфильм не принесёт им особых сюрпризов, но это осознанный шаг создателей… Всё же игра и мультфильм это несколько разный опыт и впечатления. Надеюсь, что мультфильм оправдает возложенные на него надежды создателей и в будущем мы увидим хотя бы парочку сиквелов. Мне такой подход нравится — сделано качественно!
P.S. Очень хотелось бы ещё увидеть Декстера и Слая когда-нибудь на большом экране.
Общее
Уникальный идентификатор : 184051863618633798862013777700763431262 (0x8A77197BDE73D085A63F9C3F724B715E)
Полное имя : J:\Рэтчет и Кланк Галактические рейнджеры.2016.3D\Ratchet&Clank2016.3D-halfOU.[pirat.ca].mkv
Формат : Matroska
Версия формата : Version 2
Размер файла : 5,53 Гбайт
Продолжительность : 1 ч. 34 м.
Общий поток : 8412 Кбит/сек
Название фильма : Рэтчет и Кланк: Галактические рейнджеры / Ratchet & Clank (2016) в 3Д
Дата кодирования : UTC 2016-11-14 17:35:33
Программа кодирования : mkvmerge v5.3.0 ('I could have danced') built on Feb 9 2012 10:38:07
Библиотека кодирования : libebml v1.2.3 + libmatroska v1.3.0
Видео
Идентификатор : 1
Формат : AVC
Формат/Информация : Advanced Video Codec
Профиль формата : [email protected]
Параметр CABAC формата : Да
Параметр ReFrames формата : 4 кадра
Идентификатор кодека : V_MPEG4/ISO/AVC
Продолжительность : 1 ч. 34 м.
Битрейт : 7029 Кбит/сек
Ширина : 1920 пикселей
Высота : 1080 пикселей
Соотношение сторон : 16:9
Режим частоты кадров : Постоянный
Частота кадров : 23,976 (24000/1001) кадра/сек
Цветовое пространство : YUV
Субдискретизация насыщенности : 4:2:0
Битовая глубина : 8 бит
Тип развёртки : Прогрессивная
Бит/(Пиксели*Кадры) : 0.141
Размер потока : 4,62 Гбайт (84%)
Заголовок : BDRip from BD 3D Fre)
Библиотека кодирования : x264 core 146 r2538 121396c
Настройки программы : cabac=1 / ref=4 / deblock=1:-3:-3 / analyse=0x3:0x113 / me=umh / subme=10 / psy=1 / psy_rd=1.00:0.00 / mixed_ref=1 / me_range=32 / chroma_me=1 / trellis=2 / 8x8dct=1 / cqm=0 / deadzone=21,11 / fast_pskip=1 / chroma_qp_offset=-2 / threads=12 / lookahead_threads=3 / sliced_threads=0 / nr=0 / decimate=1 / interlaced=0 / bluray_compat=0 / constrained_intra=0 / bframes=14 / b_pyramid=2 / b_adapt=2 / b_bias=0 / direct=3 / weightb=1 / open_gop=0 / weightp=2 / keyint=250 / keyint_min=23 / scenecut=40 / intra_refresh=0 / rc_lookahead=60 / rc=crf / mbtree=1 / crf=15.5 / qcomp=0.70 / qpmin=0 / qpmax=69 / qpstep=4 / vbv_maxrate=40000 / vbv_bufsize=30000 / crf_max=0.0 / nal_hrd=none / filler=0 / frame-packing=4 / ip_ratio=1.40 / aq=1:0.70
Язык : English
Default : Да
Forced : Нет
Аудио #1
Идентификатор : 2
Формат : AC-3
Формат/Информация : Audio Coding 3
Расширение режима : CM (complete main)
Параметр Endianness формата : Big
Идентификатор кодека : A_AC3
Продолжительность : 1 ч. 34 м.
Вид битрейта : Постоянный
Битрейт : 384 Кбит/сек
Каналы : 6 каналов
Расположение каналов : Front: L C R, Side: L R, LFE
Частота : 48,0 КГц
Частота кадров : 31,250 кадров/сек (1536 spf)
Метод сжатия : С потерями
Размер потока : 258 Мбайт (5%)
Заголовок : Дубляж - iTunes
Язык : Russian
Default : Да
Forced : Нет
Аудио #2
Идентификатор : 3
Формат : AC-3
Формат/Информация : Audio Coding 3
Расширение режима : CM (complete main)
Параметр Endianness формата : Big
Идентификатор кодека : A_AC3
Продолжительность : 1 ч. 34 м.
Вид битрейта : Постоянный
Битрейт : 192 Кбит/сек
Каналы : 2 канала
Расположение каналов : Front: L R
Частота : 48,0 КГц
Частота кадров : 31,250 кадров/сек (1536 spf)
Метод сжатия : С потерями
Размер потока : 129 Мбайт (2%)
Заголовок : Дубляж - iTunes
Язык : Ukrainian
Default : Нет
Forced : Нет
Аудио #3
Идентификатор : 4
Формат : AC-3
Формат/Информация : Audio Coding 3
Расширение режима : CM (complete main)
Параметр Endianness формата : Big
Идентификатор кодека : A_AC3
Продолжительность : 1 ч. 34 м.
Вид битрейта : Постоянный
Битрейт : 640 Кбит/сек
Каналы : 6 каналов
Расположение каналов : Front: L C R, Side: L R, LFE
Частота : 48,0 КГц
Частота кадров : 31,250 кадров/сек (1536 spf)
Метод сжатия : С потерями
Размер потока : 431 Мбайт (8%)
Заголовок : Original - BD 3D Fre
Язык : English
Default : Нет
Forced : Нет
Текст
Идентификатор : 5
Формат : UTF-8
Идентификатор кодека : S_TEXT/UTF8
Идентификатор кодека/Информация : UTF-8 Plain Text
Заголовок : FULL
Язык : English
Default : Нет
Forced : Нет
Меню
00:00:00.000 : : 1
00:05:50.350 : : 2
00:17:16.202 : : 3
00:26:05.689 : : 4
00:36:33.316 : : 5
00:43:46.624 : : 6
00:50:07.755 : : 7
00:56:50.407 : : 8
01:02:47.347 : : 9
01:09:23.284 : : 10
01:18:13.188 : : 11
01:23:10.194 : : 12
Download / Скачать

Хотите скачать бесплатно? Зарегистрируйтесь на сайте (ссылка на регистрацию). Pirat.ca - самый быстрый торрент трекер в рунете!

Как скачивать  ·   Что такое торрент  ·   Рейтинг и ограничения



Последний раз редактировалось: somik (2016-11-16 03:08), всего редактировалось 3 раз(а)

Пост 16-Ноя-2016 15:51 (спустя 1 день 17 часов)

Топик был перенесен из форума 3D Контент (Трюм) в форум 3D Мультфильмы
erchine
 

denmenen

Шкипер

Пост 14-Фев-2018 22:13 (спустя 1 год 3 месяца)

[Q] 

Зачем так начинать описание?! о_О
На первом же слове застопорился...

_________________
Только дурак будет доказывать дураку, что тот дурак...
[Профиль]  [ЛС] 
Показать сообщения:    
Ответить на тему

Текущее время: Сегодня 07:36

Часовой пояс: GMT + 4



Вы не можете начинать темы
Вы не можете отвечать на сообщения
Вы не можете редактировать свои сообщения
Вы не можете удалять свои сообщения
Вы не можете голосовать в опросах
Вы не можете прикреплять файлы к сообщениям
Вы не можете скачивать файлы

Майнать ▼