Уважаемый Гость!
Вы можете поддержать проект и зарегистрироваться у наших партнеров - онлайн-стратегия MyLands. При регистрации в игре Вы получите код, который сможете активировать после регистрации на pirat.ca и получить 1000 дублонов.

Ваш код:
939026db77e2d8b10435031bcde93daf0ab47661
 
     

Тэд-путешественник и тайна царя Мидаса / Tadeo Jones 2: El secreto del Rey Midas (Давид Алонсо, Энрике Гато / David Alonso, Enrique Gato) [2017 г., мультфильм, комедия, приключения, семейный, НDRip] Dub [iTunes]

Ответить на тему
 
Автор
Сообщение

Пост 04-Янв-2018 07:50

[Q] 

aleksey99

--Тэд-путешественник и тайна царя Мидаса / Tadeo Jones 2: El secreto del Rey Midas-- Производство: Испания / Ikiru Films, Institut Català de les Empreses Culturals (ICEC)
Год выпуска: 2017 г.
Жанр: мультфильм, комедия, приключения, семейный
Продолжительность: 01:24:59--Мировая премьера: 13 июня 2017
Российская премьера: 19 октября 2017, «Централ Партнершип»
Цифровой релиз: 04 января 2018, «Paramount»--Перевод: Профессиональный (полное дублирование) [iTunes]--Режиссер: Давид Алонсо, Энрике Гато / David Alonso, Enrique Gato--В ролях: Оскар Барберан, Мишель Хеннер, Адриана Угарте, Луис Посада, Мигель Анхель Хеннер, Хосе Корбачо, Росер Баталья, Рафаэль Калво, Давид Брау, Франческ Бельда др.--Описание: Тэд, не самый удачливый и ловкий исследователь и путешественник, и его странноватые друзья, в числе которых настоящая мумия и смышленый пес Джефф, отправляются на розыски злобного богача Джека Рэкхема, похитившего Сару. Любимая Тэда обнаружила, где спрятаны сокровища легендарного царя Мидаса, и злодей надеется их заполучить. Но Тэд и его команда должны разрушить планы беспринципного богача и освободить Сару!-- --Качество видео: НDRip
Контейнер: AVI
Видео кодек: XviD
Аудио кодек: AC3
Видео: 720x304 (2.37:1), 23.976 fps, XviD build 50 ~1909 kbps avg, 0.36 bit/pixel
Аудио: 48 kHz, AC3 Dolby Digital, 3/2 (L,C,R,l,r) + LFE ch, ~384 kbps
Cубтитры: отсутствуют.
Общее
Полное имя : H:\Torrent2\T3d.i.T4YH4.c4P14.2O17.D.HDRip.14OOMB.avi
Формат : AVI
Формат/Информация : Audio Video Interleave
Размер файла : 1,37 Гбайт
Продолжительность : 1 ч. 24 м.
Общий поток : 2303 Кбит/сек
Название фильма : T3d.i.T4YH4.c4P14.2O17.D.HDRip.14OOMB
Программа кодирования : VirtualDubMod 1.5.10.2 (build 2540/release)
Формат оригинала/Имя : Movie
Видео
Идентификатор : 0
Формат : MPEG-4 Visual
Профиль формата : Advanced [email protected]
Параметр BVOP формата : 2
Параметр QPel формата : Нет
Параметр GMC формата : Без точки перехода
Параметр матрицы формата : Default (MPEG)
Идентификатор кодека : XVID
Идентификатор кодека/Подсказка : XviD
Продолжительность : 1 ч. 24 м.
Битрейт : 1910 Кбит/сек
Ширина : 720 пикселей
Высота : 304 пикселя
Соотношение сторон : 2,35:1
Частота кадров : 23,976 (24000/1001) кадра/сек
Цветовое пространство : YUV
Субдискретизация насыщенности : 4:2:0
Битовая глубина : 8 бит
Тип развёртки : Прогрессивная
Метод сжатия : С потерями
Бит/(Пиксели*Кадры) : 0.364
Размер потока : 1,13 Гбайт (83%)
Библиотека кодирования : XviD 1.2.1 (UTC 2008-12-04)
Аудио
Идентификатор : 1
Формат : AC-3
Формат/Информация : Audio Coding 3
Расширение режима : CM (complete main)
Параметр Endianness формата : Big
Идентификатор кодека : 2000
Продолжительность : 1 ч. 24 м.
Вид битрейта : Постоянный
Битрейт : 384 Кбит/сек
Каналы : 6 каналов
Расположение каналов : Front: L C R, Side: L R, LFE
Частота : 48,0 КГц
Частота кадров : 31,250 кадров/сек (1536 spf)
Метод сжатия : С потерями
Размер потока : 233 Мбайт (17%)
Выравнивание : Разделение по промежуткам
Продолжительность промежутка : 42 мс. (1,00 видеокадр)
Время предзагрузки промежутка : 500 мс.
Трейлер
Download / Скачать

Хотите скачать бесплатно? Зарегистрируйтесь на сайте (ссылка на регистрацию). Pirat.ca - самый быстрый торрент трекер в рунете!

Как скачивать  ·   Что такое торрент  ·   Рейтинг и ограничения

cv1979

Морской Волк

Пост 04-Янв-2018 10:33 (спустя 2 часа 42 минуты)

[Q] 

спасибо. Лови бочку
[Профиль]  [ЛС] 

clark

Флибустьер

Пост 05-Янв-2018 00:22 (спустя 13 часов)

[Q] 

красава будем смотреть

_________________
Последним смеётся тот, кто стреляет первым.
[Профиль]  [ЛС] 

fishman

Флибустьер

Пост 05-Янв-2018 23:05 (спустя 22 часа)

[Q] 

Спасибо!!! rum

_________________
|___|___|___|___|___|___|___|__|__
__|__|__|_Биться головой_|___|___|
|___|___|___|__сюда!!___|___|__|__
__|___|___|___|___|___|___|__|__
[Профиль]  [ЛС] 

MikeB

Гроза морей

Пост 07-Янв-2018 20:30 (спустя 1 день 21 час)

[Q] 

хороший мультфильм
[Профиль]  [ЛС] 

Пост 09-Фев-2018 16:51 (спустя 1 месяц 1 день)

Топик был перенесен из форума Новинки (HD|DVD|BD| TV|SAT|PDTV| - Rips) в форум Зарубежные полнометражные мультфильмы
aleksey99
 

Madwarg

Корсар

Пост 17-Фев-2018 00:06 (спустя 1 месяц 9 дней)

[Q] 

забрал, спасибо!
[Профиль]  [ЛС] 

denmenen

Шкипер

Пост 17-Фев-2018 02:36 (спустя 2 часа 30 минут)

[Q] 

Спасибо. Заценим.

_________________
Только дурак будет доказывать дураку, что тот дурак...
[Профиль]  [ЛС] 
Показать сообщения:    
Ответить на тему

Текущее время: Сегодня 07:43

Часовой пояс: GMT + 4



Вы не можете начинать темы
Вы не можете отвечать на сообщения
Вы не можете редактировать свои сообщения
Вы не можете удалять свои сообщения
Вы не можете голосовать в опросах
Вы не можете прикреплять файлы к сообщениям
Вы не можете скачивать файлы

▼ Вниз