Женись на мне, чувак / Epouse-moi mon pote (Тарек Будали / Tarek Boudali) [2017 г., комедия, WEB-DLRip] Dub [iTunes]

Ответить на тему
 
Автор
Сообщение

Пост 09-Фев-2018 21:45

[Q] 

aleksey99

--Женись на мне, чувак / Epouse-moi mon pote--«Дружба - настоящая. Брак - фиктивный»-- Производство: Франция / Axel Films, Canal+ [fr]
Год выпуска: 2017 г.
Жанр: комедия
Продолжительность: 01:27:59--Мировая премьера: 25 октября 2017
Российская премьера: 9 ноября 2017, «Вольга»
Цифровой релиз: 08 февраля 2018, «Вольга»--Перевод: Профессиональный (полное дублирование) [iTunes]--Режиссер: Тарек Будали / Tarek Boudali--В ролях: Тарек Будали, Филипп Лашо, Шарлотта Габрис, Анди, Давид Марсе, Жюльен Аррути, Байа Белаль, Филипп Дюкен, Зинедин Суалем, Дуду Маста--Описание: Единственный шанс для провалившего экзамен студента остаться в Париже — это фиктивный брак. Однако, найти невесту так быстро практически невозможно. И тогда на помощь приходит лучший друг.-- --Качество видео: WEB-DLRip
Контейнер: AVI
Видео кодек: XviD
Аудио кодек: AC3
Видео: 704x384 (1.83:1), 25 fps, XviD build 73 ~1982 kbps avg, 0.29 bit/pixel
Аудио: 48 kHz, AC3 Dolby Digital, 3/2 (L,C,R,l,r) + LFE ch, ~384 kbps
Cубтитры: отсутствуют.
Общее
Полное имя : H:\Torrent2\Epouse-moi.mon.pote.2017.WEB-DLRip.1.46Gb.avi
Формат : AVI
Формат/Информация : Audio Video Interleave
Размер файла : 1,46 Гбайт
Продолжительность : 1 ч. 27 м.
Общий поток : 2377 Кбит/сек
Программа кодирования : VirtualDubMod 1.5.10.2 (build 2540/release)
Библиотека кодирования : VirtualDubMod build 2540/release
Видео
Идентификатор : 0
Формат : MPEG-4 Visual
Профиль формата : Advanced [email protected]
Настройки формата : BVOP1 / Custom Matrix
Параметр BVOP формата : 1
Параметр QPel формата : Нет
Параметр GMC формата : Без точки перехода
Параметр матрицы формата : Выборочная
Идентификатор кодека : XVID
Идентификатор кодека/Подсказка : XviD
Продолжительность : 1 ч. 27 м.
Битрейт : 1983 Кбит/сек
Ширина : 704 пикселя
Высота : 384 пикселя
Соотношение сторон : 1,85:1
Частота кадров : 25,000 кадров/сек
Цветовое пространство : YUV
Субдискретизация насыщенности : 4:2:0
Битовая глубина : 8 бит
Тип развёртки : Прогрессивная
Метод сжатия : С потерями
Бит/(Пиксели*Кадры) : 0.293
Размер потока : 1,22 Гбайт (83%)
Библиотека кодирования : XviD 73
Аудио
Идентификатор : 1
Формат : AC-3
Формат/Информация : Audio Coding 3
Идентификатор кодека : 2000
Продолжительность : 1 ч. 27 м.
Вид битрейта : Постоянный
Битрейт : 384 Кбит/сек
Каналы : 6 каналов
Расположение каналов : Front: L C R, Side: L R, LFE
Частота : 48,0 КГц
Частота кадров : 31,250 кадров/сек (1536 SPF)
Битовая глубина : 16 бит
Метод сжатия : С потерями
Размер потока : 242 Мбайт (16%)
Выравнивание : Разделение по промежуткам
Продолжительность промежутка : 40 мс. (1,00 видеокадр)
Время предзагрузки промежутка : 500 мс.
ServiceKind/String : Complete Main
Трейлер
Download / Скачать

Хотите скачать бесплатно? Зарегистрируйтесь на сайте (ссылка на регистрацию). Pirat.ca - самый быстрый торрент трекер в рунете!

Как скачивать  ·   Что такое торрент  ·   Рейтинг и ограничения

zvezda_2s

Флибустьер

Пост 10-Фев-2018 12:06 (спустя 14 часов)

[Q] 

Мда... Сюжетец, судю по описанию, уже отталкивающий...
[Профиль]  [ЛС] 

Gari4

Флибустьер

Пост 10-Фев-2018 20:46 (спустя 8 часов)

[Q] 

Прошло 18 минут фильма...мне надоело....скука смертная... Трафик потрачен зря!

_________________
РЕБЯТ!! Подпишитесь на канал! Вам все равно, а мне приятно))
https://www.youtube.com/channel/UCHdnAvKKhkxeJvg3DQ...ew_as=subscriber
[Профиль]  [ЛС] 

Sharifulla

Корсар

Пост 18-Фев-2018 00:29 (спустя 7 дней)

[Q] 

Автору респект, спасибо за труды.
[Профиль]  [ЛС] 

лехххел

Морской Волк

Пост 14-Мар-2018 02:22 (спустя 24 дня)

[Q] 

Фильм смешной
[Профиль]  [ЛС] 

Barskavkaz

Корсар

Пост 14-Мар-2018 03:02 (спустя 39 минут)

[Q] 

Посмотрел, местами посмеялся, на разок потянет) за старание автору отдельное спасибо)

_________________
Д.Тк
[Профиль]  [ЛС] 

lexaspirit

Пост 30-Июн-2018 14:33 (спустя 3 месяца 16 дней)

[Q] 

Фильм понравился. Есть много моментов где можно посмеяться. Чтобы скоротать вечер, потянет.

_________________
-------------------- ----------------------
[Профиль]  [ЛС] 
Показать сообщения:    
Ответить на тему

Текущее время: Сегодня 23:39

Часовой пояс: GMT + 4



Вы не можете начинать темы
Вы не можете отвечать на сообщения
Вы не можете редактировать свои сообщения
Вы не можете удалять свои сообщения
Вы не можете голосовать в опросах
Вы не можете прикреплять файлы к сообщениям
Вы не можете скачивать файлы

Майнать ▼