Курск: Подводная лодка в мутной воде / Koursk: Un sous-marin en eaux troubles (Жан-Мишель Карре / Jean-Michel Carré) [2004 г., документальный, DVDRip] VO + Original (Fre) + 2x Sub (Rus)

Ответить на тему
 
Автор
Сообщение

Пост 11-Июн-2014 15:55

[Q] 

AnastasWolf

-Курск: Подводная лодка в мутной воде / Koursk: Un sous-marin en eaux troubles- Год выпуска: 2004 г.
Производство: Франция , Les Films Grain De Sable, Yenan Productions, Clap d'Ort Films, France 2.
Жанр: документальный
Продолжительность: 01:13:04
Мировая премьера: 24 октября 2004
Перевод: Профессиональный (одноголосый, закадровый)
Оригинальный аудиопоток: французский
Режиссёр: Жан-Мишель Карре / Jean-Michel Carré-В ролях: Питер Койот-Описание:
Фильм, который не показывали и не покажут в России, прошёл по французскому телевидению 7 января 2005 года. Во Франции его посмотрело рекордное для документального фильма число зрителей – 4 000 000. В этой ленте, снятой французским журналистом Жан-Мишелем Карре, предпринята попытка доказать версию о том, что «Курск» потопила американская торпеда. Поводом для фильма послужило короткое сообщение, которое появилось 22 августа 2000г. на Интернет сайте газеты «Правда» в котором сообщалось, что в результате инцидента произошедшего 12 августа 2000г. в Баренцевом море с российской подводной лодкой «Курск» мир оказался на пороге третьей мировой войны, но президент Российской Федерации Владимир Владимирович Путин и президент Соединенных Штатов Вильям Джефферсон Клинтон после многочисленных конфиденциальных телефонных переговоров сумели договориться о мирном урегулировании дела. Через несколько часов сообщение исчезло, и все дальнейшие попытки российских СМИ выдвинуть версию о причастности США к трагедии с «Курском», пресекались под давлением властей.
-
Качество видео: DVDRip
Контейнер: AVI
Видео кодек: XviD
Аудио кодек: AC3
Видео: 704x384 (1.85:1), 1399 kbps, 25 fps, 0.207 bit/pixel
Аудио: русский: 192 kbps, 2 ch, 48.0 kHz
Аудио #2: французский: 384 kbps, 2 ch, 48.0 kHz
Cубтитры: русские (2 варианта)
Общее
Полное имя : Курск. Подводная лодка в мутной воде.2004.[DVDRip].avi
Формат : AVI
Формат/Информация : Audio Video Interleave
Размер файла : 1,02 Гбайт
Продолжительность : 1 ч. 13 м.
Общий поток : 1989 Кбит/сек
Программа кодирования : VirtualDubModRus 1.5.10.2 (build 2542/release)
Библиотека кодирования : VirtualDubMod build 2542/release
Видео
Идентификатор : 0
Формат : MPEG-4 Visual
Профиль формата : Advanced [email protected]
Параметр BVOP формата : Нет
Параметр QPel формата : Нет
Параметр GMC формата : Без точки перехода
Параметр матрицы формата : Default (H.263)
Идентификатор кодека : XVID
Идентификатор кодека/Подсказка : XviD
Продолжительность : 1 ч. 13 м.
Битрейт : 1399 Кбит/сек
Ширина : 704 пикселя
Высота : 384 пикселя
Соотношение сторон : 1,85:1
Частота кадров : 25,000 кадров/сек
Цветовое пространство : YUV
Субдискретизация насыщенности : 4:2:0
Битовая глубина : 8 бит
Тип развёртки : Прогрессивная
Метод сжатия : С потерями
Бит/(Пиксели*Кадры) : 0.207
Размер потока : 731 Мбайт (70%)
Библиотека кодирования : XviD 1.2.1 (UTC 2008-12-04)
Аудио #1
Идентификатор : 1
Формат : AC-3
Формат/Информация : Audio Coding 3
Расширение режима : CM (complete main)
Параметр Endianness формата : Big
Идентификатор кодека : 2000
Продолжительность : 1 ч. 13 м.
Вид битрейта : Постоянный
Битрейт : 192 Кбит/сек
Каналы : 2 канала
Расположение каналов : Front: L R
Частота : 48,0 КГц
Битовая глубина : 16 бит
Метод сжатия : С потерями
Размер потока : 100 Мбайт (10%)
Выравнивание : Разделение по промежуткам
Продолжительность промежутка : 40 мс. (1,00 видеокадр)
Время предзагрузки промежутка : 500 мс.
Аудио #2
Идентификатор : 2
Формат : AC-3
Формат/Информация : Audio Coding 3
Расширение режима : CM (complete main)
Параметр Endianness формата : Big
Идентификатор кодека : 2000
Продолжительность : 1 ч. 13 м.
Вид битрейта : Постоянный
Битрейт : 384 Кбит/сек
Каналы : 2 канала
Расположение каналов : Front: L R
Частота : 48,0 КГц
Битовая глубина : 16 бит
Метод сжатия : С потерями
Размер потока : 201 Мбайт (19%)
Выравнивание : Разделение по промежуткам
Продолжительность промежутка : 40 мс. (1,00 видеокадр)
Время предзагрузки промежутка : 500 мс.
Скриншоты:
-
Download / Скачать

Хотите скачать бесплатно? Зарегистрируйтесь на сайте (ссылка на регистрацию). Pirat.ca - самый быстрый торрент трекер в рунете!

Как скачивать  ·   Что такое торрент  ·   Рейтинг и ограничения



Последний раз редактировалось: AnastasWolf (2014-06-11 17:44), всего редактировалось 2 раз(а)

Нэйтон

Флибустьер

Пост 11-Июн-2014 17:14 (спустя 1 час 18 минут)

[Q] 

Просто ах...ный фильм...... его точно в россии никогда не покажут....
Проще всего держать народ в неведении..... тогда им можно легко управлять.....
Супер! Лови бочку
[Профиль]  [ЛС] 

AnastasWolf ®

3520

Пост 11-Июн-2014 17:27 (спустя 12 минут)

[Q] 

Нэйтон, жми, а не пиши.

_________________
[Профиль]  [ЛС] 

Нэйтон

Флибустьер

Пост 11-Июн-2014 17:27 (спустя 28 секунд)

[Q] 

У нас не правительство..... а настоящие ТВАРИ.....
еще и мозги народу промывают демократией....... ca
[Профиль]  [ЛС] 

AnastasWolf ®

3520

Пост 11-Июн-2014 17:33 (спустя 5 минут)

[Q] 

Нэйтон, думаю, лучше это обсудить в форуме "политика".

_________________
[Профиль]  [ЛС] 

Atlant28

Пост 22-Фев-2018 21:34 (спустя 3 года 8 месяцев)

[Q] 

Интересный фильм
[Профиль]  [ЛС] 
Показать сообщения:    
Ответить на тему

Текущее время: Сегодня 05:52

Часовой пояс: GMT + 4



Вы не можете начинать темы
Вы не можете отвечать на сообщения
Вы не можете редактировать свои сообщения
Вы не можете удалять свои сообщения
Вы не можете голосовать в опросах
Вы не можете прикреплять файлы к сообщениям
Вы не можете скачивать файлы

Майнать ▼