Deep Purple - In Concert With the London Symphony Orchestra (Музыкальный фильм)[2000 г.] (Rock) [DVDRip]

Ответить на тему
 
Автор
Сообщение

Пост 23-Фев-2018 18:54

[Q] 

Боцман

Deep Purple - In Concert With the London Symphony Orchestra Год выпуска: 2000
Производство: Великобритания
Жанр: Rock
Продолжительность: 1:59:30
Режисёр: Обри Пауэлл
Студия: Eagle Rock Entertaiment
Источник/Качество: DVDRip
01. Pictured Within
02. Wait A While
03. Sitting In A Dream
04. Love Is All
05. Wring That Neck
06. Concerto For Group And Orchestra (Movement I, II, III)
07. Ted The Mechanic
08. Watching The Sky
09. Sometimes I Feel Like Screaming
10. Pictures Of Home
11. Smoke On The Water
Формат: AVI
Видео кодек: DivX 5
Аудио кодек: AC3
Видео: DivX 5, 688x512, 25.000fps, 1179 Kbps
Аудио: Dolby AC3 48000Hz 5ch 448kbps
ОписаниеВпервые выступление Deep Purple с лондонским симфоническим оркестром произошло в далеком 1969 году, но за суетой происходящих с группой событий материал был утерян. В 1999 году Джон Лорд восстановил утерянные нотные записи Concerto for Group and Orchestra; произведение было вновь исполнено в Ройал Алберт-Холле в сентябре 1999 года, на этот раз с Лондонским симфоническим оркестром и дирижёром Полом Манном. В 2000 году вышел альбом In Concert with the London Symphony Orchestra. Весной 2001 года два аналогичных концерта были проведены в Токио и выпущены как часть бокс-сета The Soundboard Series. В этот раз на концерт были приглашены гости и музыканты, которые играли с группой на протяжении её существования. Интересный факт: в ходе репетиций с Лондонским филармоническим оркестром возник конфликт: некая виолончелистка демонстративно покинула студию, не желая играть «с какими-то второразрядными Битлз». Концерт имел успех, публика вызывала музыкантов на бис, и разгневанная виолончелистка в конечном итоге попросила у Лорда прощения.
General
Complete name : D:\Deep.Purple.In.Concert.With.The.London.Symphony.Orchestra.2000.DivX.DVDRip.avi
Format : AVI
Format/Info : Audio Video Interleave
File size : 1.37 GiB
Duration : 1h 59mn
Overall bit rate : 1 637 Kbps
Writing application : FairUse Wizard - http://fairusewizard.com
Writing library : The best and REALLY easy backup tool
Video
ID : 0
Format : MPEG-4 Visual
Format settings, BVOP : 1
Format settings, QPel : No
Format settings, GMC : No warppoints
Format settings, Matrix : Default (H.263)
Muxing mode : Packed bitstream
Codec ID : DX50
Codec ID/Hint : DivX 5
Duration : 1h 59mn
Bit rate : 1 179 Kbps
Width : 688 pixels
Height : 512 pixels
Display aspect ratio : 4:3
Frame rate : 25.000 fps
Color space : YUV
Chroma subsampling : 4:2:0
Bit depth : 8 bits
Scan type : Progressive
Compression mode : Lossy
Bits/(Pixel*Frame) : 0.134
Stream size : 1 008 MiB (72%)
Writing library : DivX 6.8.0 (UTC 2007-12-04)
Audio
ID : 1
Format : AC-3
Format/Info : Audio Coding 3
Mode extension : CM (complete main)
Codec ID : 2000
Duration : 1h 59mn
Bit rate mode : Constant
Bit rate : 448 Kbps
Channel(s) : 5 channels
Channel positions : Front: L C R, Side: L R
Sampling rate : 48.0 KHz
Bit depth : 16 bits
Compression mode : Lossy
Stream size : 383 MiB (27%)
Alignment : Split accross interleaves
Interleave, duration : 40 ms (1.00 video frame)
Interleave, preload duration : 500 ms
-



Download / Скачать

Хотите скачать бесплатно? Зарегистрируйтесь на сайте (ссылка на регистрацию). Pirat.ca - самый быстрый торрент трекер в рунете!

Как скачивать  ·   Что такое торрент  ·   Рейтинг и ограничения



Последний раз редактировалось: Боцман (2018-02-26 22:41), всего редактировалось 3 раз(а)

jofrei53

Флибустьер

Пост 23-Фев-2018 19:30 (спустя 36 минут)

[Q] 

Боцман, Огромное спасибо!!! Это наша юность.... Автору респект!!! Лови бочку
[Профиль]  [ЛС] 

Боцман ®

1838

Пост 23-Фев-2018 19:54 (спустя 23 минуты)

[Q] 

Всем качать!!!! Не жалеем рома..... у меня пустые трюмы...)))) скачав не сбегаем с раздачи!!!!
Добавлено спустя 6 минут 2 секунды:
819651Боцман, Огромное спасибо!!! Это наша юность.... Автору респект!!! Лови бочку
Когда они в 1969 его лабали мне 10 было.....)))) так что не просто юность... даже детство...))))

_________________
не верь не бойся не проси не плачь...
[Профиль]  [ЛС] 

Амангельды

38074

Пост 24-Фев-2018 00:03 (спустя 4 часа)

[Q] 

Боцман, Раздающему респект!

_________________

Товарищ, верь, пройдет она,
Так называемая гласность.
И вот тогда госбезопасность
Припомнит ваши имена
Раздачи от Амангельды - ТЫНЦ
[Профиль]  [ЛС] 

Боцман ®

1838

Пост 24-Фев-2018 00:12 (спустя 9 минут)

[Q] 

819680Боцман, Раздающему респект!
Не стареют душой ветераны....)))))
Спасибо тебе за ром...)))

_________________
не верь не бойся не проси не плачь...
[Профиль]  [ЛС] 

Амангельды

38074

Пост 24-Фев-2018 11:51 (спустя 11 часов)

[Q] 

Боцман, грешным делом подумал, что и ты корабль покинул.
Как многие достойные парни...
А тут отстреливаешь такими перлами!!!
Не так все тут и плохо, оказывается. )))
fh

_________________

Товарищ, верь, пройдет она,
Так называемая гласность.
И вот тогда госбезопасность
Припомнит ваши имена
Раздачи от Амангельды - ТЫНЦ
[Профиль]  [ЛС] 

Пост 24-Фев-2018 15:14 (спустя 3 часа)

Топик был перенесен из форума Music video (HD/DVD) (Трюм) в форум Music films
sergej644
 

Боцман ®

1838

Пост 24-Фев-2018 15:43 (спустя 3 часа)

[Q] 

819707Боцман, грешным делом подумал, что и ты корабль покинул.
Как многие достойные парни...
А тут отстреливаешь такими перлами!!!
Не так все тут и плохо, оказывается. )))
fh
не дождешься.... я отсюда только вперед ногами с колосником привязанным к ногам..)))))) просто навалилось на меня за эти пару лет.... пинает жизнь в жесткую ногами...))))

_________________
не верь не бойся не проси не плачь...
[Профиль]  [ЛС] 

Амангельды

38074

Пост 24-Фев-2018 17:46 (спустя 2 часа 3 минуты)

[Q] 

819732пинает жизнь в жесткую ногами...
Херня, мы же советские люди...
Стоим ровно, тока шатаемся )))

_________________

Товарищ, верь, пройдет она,
Так называемая гласность.
И вот тогда госбезопасность
Припомнит ваши имена
Раздачи от Амангельды - ТЫНЦ
[Профиль]  [ЛС] 

Боцман ®

1838

Пост 24-Фев-2018 19:25 (спустя 1 час 39 минут)

[Q] 

819738
819732пинает жизнь в жесткую ногами...
Херня, мы же советские люди...
Стоим ровно, тока шатаемся )))
bs fh

_________________
не верь не бойся не проси не плачь...
[Профиль]  [ЛС] 
Показать сообщения:    
Ответить на тему

Текущее время: Сегодня 13:50

Часовой пояс: GMT + 4



Вы не можете начинать темы
Вы не можете отвечать на сообщения
Вы не можете редактировать свои сообщения
Вы не можете удалять свои сообщения
Вы не можете голосовать в опросах
Вы не можете прикреплять файлы к сообщениям
Вы не можете скачивать файлы

Майнать ▼