[Jolly Roger] Большой куш / Snatch. (Гай Ричи / Guy Ritchie) [2000 г., триллер, криминал, BDRip-AVC] 2 MVO + 2 VO

Ответить на тему
 
Автор
Сообщение

Пост 19-Июл-2012 22:57

[Q] 

zyyx

-Большой куш / Snatch.
«Stealing stones is hazardous.»
-- Год выпуска: 2000 г.
Производство: США, Великобритания
Жанр: триллер, криминал
Продолжительность: 01:42:46
Перевод: Профессиональный (многоголосый, закадровый) [Лицензия]
Перевод: Профессиональный (многоголосый, закадровый) [СТС]
Перевод: Профессиональный (одноголосый, закадровый) Дмитрий «Гоблин» Пучков, старая версия, 2001
Перевод: Профессиональный (одноголосый, закадровый) Дмитрий «Гоблин» Пучков, новая версия, 2004
Оригинальный аудиопоток: Английский
Субтитры: Русские, английские
Режиссер: Гай Ричи / Guy Ritchie
В ролях: Джейсон Стэйтем, Брэд Питт, Бенисио Дель Торо, Стивен Грэм, Алан Форд, Деннис Фарина, Раде Шербеджия, Винни Джонс, Джейсон Флеминг, Майк Рейд
Описание: Четырехпалый Френки должен был переправить краденный алмаз из Англии в США своему боссу Эви. Но вместо этого герой попадает в эпицентр больших неприятностей. Сделав ставку на подпольном боксерском поединке, Френки попадает в круговорот весьма нежелательных событий.
Вокруг героя и его груза разворачивается сложная интрига с участием множества колоритных персонажей лондонского дна — русского гангстера, троих незадачливых грабителей, хитрого боксера и угрюмого громилы грозного мафиози. Каждый норовит в одиночку сорвать Большой Куш. А кончается все неожиданным и остроумным финалом.
-- --Качество видео: BDRip-AVC
Формат видео: MKV
Видео кодек: H.264
Аудио кодек: AC3
Видео: 944x512, 23.976fps, 1954 Kbps, 0.169 bit/pixel
Аудио: 48.0 KHz, 6 ch, 320 Kbps Rus [Лицензия]
Аудио: 48.0 KHz, 6 ch, 448 Kbps Rus / Rus / Rus / Eng
General
Unique ID : 245897766326371532363690882499038245617 (0xB8FE2FE893A5440E954C171F330172F1)
Complete name : O:\Jolly Roger\Snatch.2000.x264.BDRip-AVC.JRG.mkv
Format : Matroska
Format version : Version 2
File size : 2.91 GiB
Duration : 1h 42mn
Overall bit rate : 4 069 Kbps
Movie name : Snatch. 2000 - The Jolly Roger by Pirat.Ca [zyyx]
Encoded date : UTC 2012-07-19 18:21:30
Writing application : mkvmerge v4.9.1 ('Ich will') сборка от Jul 11 2011 23:53:15
Writing library : libebml v1.2.1 + libmatroska v1.1.1
Video
ID : 1
Format : AVC
Format/Info : Advanced Video Codec
Format profile : High@L4.1
Format settings, CABAC : Yes
Format settings, ReFrames : 16 frames
Codec ID : V_MPEG4/ISO/AVC
Duration : 1h 42mn
Bit rate : 1 954 Kbps
Width : 944 pixels
Height : 512 pixels
Display aspect ratio : 1.85:1
Frame rate : 23.976 fps
Color space : YUV
Chroma subsampling : 4:2:0
Bit depth : 8 bits
Scan type : Progressive
Bits/(Pixel*Frame) : 0.169
Stream size : 1.34 GiB (46%)
Title : R.G. Jolly Roger
Writing library : x264 core 116 r2044 392e762
Encoding settings : cabac=1 / ref=16 / deblock=1:-1:-1 / analyse=0x3:0x133 / me=umh / subme=11 / psy=1 / psy_rd=1.00:0.00 / mixed_ref=1 / me_range=64 / chroma_me=1 / trellis=2 / 8x8dct=1 / cqm=0 / deadzone=21,11 / fast_pskip=0 / chroma_qp_offset=-2 / threads=16 / sliced_threads=0 / nr=0 / decimate=1 / interlaced=0 / bluray_compat=0 / constrained_intra=0 / bframes=16 / b_pyramid=2 / b_adapt=2 / b_bias=0 / direct=3 / weightb=1 / open_gop=0 / weightp=2 / keyint=250 / keyint_min=23 / scenecut=40 / intra_refresh=0 / rc_lookahead=50 / rc=2pass / mbtree=1 / bitrate=1954 / ratetol=1.0 / qcomp=0.60 / qpmin=0 / qpmax=69 / qpstep=4 / cplxblur=20.0 / qblur=0.5 / ip_ratio=1.40 / aq=1:1.00
Default : Yes
Forced : No
Audio #1
ID : 2
Format : AC-3
Format/Info : Audio Coding 3
Mode extension : CM (complete main)
Format settings, Endianness : Big
Codec ID : A_AC3
Duration : 1h 42mn
Bit rate mode : Constant
Bit rate : 320 Kbps
Channel(s) : 6 channels
Channel positions : Front: L C R, Side: L R, LFE
Sampling rate : 48.0 KHz
Bit depth : 16 bits
Compression mode : Lossy
Stream size : 235 MiB (8%)
Title : Лицензия
Language : Russian
Default : Yes
Forced : No
Audio #2
ID : 3
Format : AC-3
Format/Info : Audio Coding 3
Mode extension : CM (complete main)
Format settings, Endianness : Big
Codec ID : A_AC3
Duration : 1h 42mn
Bit rate mode : Constant
Bit rate : 448 Kbps
Channel(s) : 6 channels
Channel positions : Front: L C R, Side: L R, LFE
Sampling rate : 48.0 KHz
Bit depth : 16 bits
Compression mode : Lossy
Stream size : 329 MiB (11%)
Title : СТС
Language : Russian
Default : No
Forced : No
Audio #3
ID : 4
Format : AC-3
Format/Info : Audio Coding 3
Mode extension : CM (complete main)
Format settings, Endianness : Big
Codec ID : A_AC3
Duration : 1h 42mn
Bit rate mode : Constant
Bit rate : 448 Kbps
Channel(s) : 6 channels
Channel positions : Front: L C R, Side: L R, LFE
Sampling rate : 48.0 KHz
Bit depth : 16 bits
Compression mode : Lossy
Stream size : 329 MiB (11%)
Title : Дмитрий «Гоблин» Пучков, старая версия, 2001
Language : Russian
Default : No
Forced : No
Audio #4
ID : 5
Format : AC-3
Format/Info : Audio Coding 3
Mode extension : CM (complete main)
Format settings, Endianness : Big
Codec ID : A_AC3
Duration : 1h 42mn
Bit rate mode : Constant
Bit rate : 448 Kbps
Channel(s) : 6 channels
Channel positions : Front: L C R, Side: L R, LFE
Sampling rate : 48.0 KHz
Bit depth : 16 bits
Compression mode : Lossy
Stream size : 329 MiB (11%)
Title : Дмитрий «Гоблин» Пучков, новая версия, 2004
Language : Russian
Default : No
Forced : No
Audio #5
ID : 6
Format : AC-3
Format/Info : Audio Coding 3
Mode extension : CM (complete main)
Format settings, Endianness : Big
Codec ID : A_AC3
Duration : 1h 42mn
Bit rate mode : Constant
Bit rate : 448 Kbps
Channel(s) : 6 channels
Channel positions : Front: L C R, Side: L R, LFE
Sampling rate : 48.0 KHz
Bit depth : 16 bits
Compression mode : Lossy
Stream size : 329 MiB (11%)
Language : English
Default : No
Forced : No
Text #1
ID : 7
Format : UTF-8
Codec ID : S_TEXT/UTF8
Codec ID/Info : UTF-8 Plain Text
Language : Russian
Default : No
Forced : No
Text #2
ID : 8
Format : UTF-8
Codec ID : S_TEXT/UTF8
Codec ID/Info : UTF-8 Plain Text
Language : English
Default : No
Forced : No
-
--
Download / Скачать

Хотите скачать бесплатно? Зарегистрируйтесь на сайте (ссылка на регистрацию). Pirat.ca - самый быстрый торрент трекер в рунете!

Как скачивать  ·   Что такое торрент  ·   Рейтинг и ограничения



Последний раз редактировалось: zyyx (2012-07-19 23:34), всего редактировалось 1 раз

-B1ack-

1906

Пост 19-Июл-2012 23:09 (спустя 11 минут)

[Q] 

zyyx
вот спасибо за качество и гоблина,один из любимых фильмов ...помогу раздать =)
az

_________________
[Профиль]  [ЛС] 

dmsushko

Корсар

172

Пост 20-Июл-2012 05:25 (спустя 6 часов)

[Q] 

Перевод Пучкова от 2004 не слышал, вариант от СТС тоже интересно послушать - забираю!

Спасибо за размер, для встроенного плеера моего '32 гнусмуса самое то!

_________________

[Профиль]  [ЛС] 

Wolf

59596

Пост 21-Июл-2012 18:39 (спустя 1 день 13 часов)

[Q] 

[Профиль]  [ЛС] 

kos8565

Шкипер

Пост 09-Сен-2012 20:29 (спустя 1 месяц 19 дней)

[Q] 

На раздачу встаньте пэжел...
[Профиль]  [ЛС] 

PevGen_pg

Шкипер

1

Пост 04-Дек-2012 04:18 (спустя 2 месяца 24 дня)

[Q] 

[Профиль]  [ЛС] 

senila

Штурман

Пост 09-Фев-2013 17:44 (спустя 2 месяца 5 дней)

[Q] 

Отличный фильм
[Профиль]  [ЛС] 

ubadm

Морской Волк

Пост 03-Авг-2013 12:40 (спустя 5 месяцев 21 день)

[Q] 

Спасибо!!!
[Профиль]  [ЛС] 

WhyNA

Шкипер

Пост 14-Авг-2013 15:00 (спустя 11 дней)

[Q] 

Спасибо, забираю ! :) Лови бочку

_________________
И когда он снял вторую печать, я слышал второе животное, говорящее: иди и смотри. И вышел другой конь, рыжий; и сидящему на нем дано взять мир с земли, и чтобы убивали друг друга; и дан ему большой меч.
(Откр.6:3-4)
[Профиль]  [ЛС] 

СерКат

Корсар

Пост 18-Дек-2013 17:11 (спустя 4 месяца 4 дня)

[Q] 

хочется посмотреть az
[Профиль]  [ЛС] 

Joseph

Лоцман

Пост 29-Апр-2014 05:30 (спустя 4 месяца 10 дней)

[Q] 

Спустя столько лет смотреть буду. 1 сид на раздаче Не качает
[Профиль]  [ЛС] 

UncleFather

Легенда

Пост 10-Май-2014 06:17 (спустя 11 дней)

[Q] 

О дааа... Классика))) Спасибо за звуковые дорожки. !COOL!

_________________
Одни боялись Пью, другие - Билли Бонса, а меня... меня боялся сам Флинт
[Профиль]  [ЛС] 

zvyagin_da

Пост 05-Июн-2014 23:11 (спустя 26 дней)

[Q] 

спасибо Качаю
[Профиль]  [ЛС] 

PavKor

Шкипер

Пост 28-Июн-2014 17:55 (спустя 22 дня)

[Q] 

Добротная комедия. Посмеялся от души. Настоятельно рекомендуется смотреть в авторском переводе. Да и сам актерский состав в подобном амплуа - доставляет.
[Профиль]  [ЛС] 

SenatoR

Морской Волк

Пост 12-Апр-2015 12:38 (спустя 9 месяцев 13 дней)

[Q] 

Спасибо за классный фильм Супер!
[Профиль]  [ЛС] 

zvezda_2s

Флибустьер

Пост 06-Мар-2018 15:10 (спустя 2 года 10 месяцев)

[Q] 

Качаем. Смотрим.
[Профиль]  [ЛС] 
Показать сообщения:    
Ответить на тему

Текущее время: Сегодня 19:49

Часовой пояс: GMT + 4



Вы не можете начинать темы
Вы не можете отвечать на сообщения
Вы не можете редактировать свои сообщения
Вы не можете удалять свои сообщения
Вы не можете голосовать в опросах
Вы не можете прикреплять файлы к сообщениям
Вы не можете скачивать файлы

Майнать ▼