Стань легендой! Бигфут Младший / The Son of Bigfoot (Жереми Дегрусон, Бен Стассен / Jeremy Degruson, Ben Stassen) [2017 г., мультфильм, фэнтези, комедия, семейный, BDRip] Dub [iTunes]

Ответить на тему
 
Автор
Сообщение

Пост 16-Дек-2017 14:21

[Q] 

ara1205

-Стань легендой! Бигфут Младший / The Son of Bigfoot-- Производство: Франция, Бельгия
Год выпуска: 2017 г.
Жанр: мультфильм, фэнтези, комедия, семейный
Продолжительность: 01:32:14
Дата выхода DVD: 18 декабря 2017
Дата выхода Blu-Ray: 18 декабря 2017
Перевод: Профессиональный (полное дублирование) [iTunes]-Режиссёр: Жереми Дегрусон, Бен Стассен / Jeremy Degruson, Ben Stassen-В ролях: Синда Адамс, Боб Барлен, Кэллан Брункер, Джои Камен, Дэвид Эпштейн, Кристофер Л. Парсон, Джо Томас-Описание: Обычный подросток по имени Адам отправляется на поиски своего давно пропавшего отца и попадает в приключение мифических масштабов. Его мир переворачивается вверх дном, когда оказывается, что в нем течет кровь последних легендарных хранителей леса — бигфутов. Теперь ему открыты такие способности как суперскорость, живительное прикосновение и возможность понимать язык животных.- Качество видео: BDRip
Контейнер: AVI
Видео кодек: XviD
Аудио кодек: AC3
Видео: 688х384, 23,976 fps, 1812 Kbps, 0.286 bits/pixel
Аудио: 48 kHz, AC3 Dolby Digital, 6 ch, 384 Kbps
Cубтитры: отсутствуют-
Общее
Полное имя : C:\Users\Admin\Pictures\Стань легендой! Бигфут Младший\Stan.Legendoy.Bigfyt.Mladshiy.2017.BDRip.[pirat.ca].avi
Формат : AVI
Формат/Информация : Audio Video Interleave
Размер файла : 1,42 Гбайт
Продолжительность : 1 ч. 32 м.
Общий поток : 2205 Кбит/сек
Программа кодирования : VirtualDubMod 1.5.10.2 (build 2540/release)
Библиотека кодирования : VirtualDubMod build 2540/release
Видео
Идентификатор : 0
Формат : MPEG-4 Visual
Профиль формата : Advanced Simple@L5
Параметр BVOP формата : 1
Параметр QPel формата : Нет
Параметр GMC формата : Без точки перехода
Параметр матрицы формата : Выборочная
Идентификатор кодека : XVID
Идентификатор кодека/Подсказка : XviD
Продолжительность : 1 ч. 32 м.
Битрейт : 1812 Кбит/сек
Ширина : 688 пикселей
Высота : 384 пикселя
Соотношение сторон : 16:9
Частота кадров : 23,976 кадра/сек
Цветовое пространство : YUV
Субдискретизация насыщенности : 4:2:0
Битовая глубина : 8 бит
Тип развёртки : Прогрессивная
Метод сжатия : С потерями
Бит/(Пиксели*Кадры) : 0.286
Размер потока : 1,17 Гбайт (82%)
Библиотека кодирования : XviD 73
Аудио
Идентификатор : 1
Формат : AC-3
Формат/Информация : Audio Coding 3
Расширение режима : CM (complete main)
Параметр Endianness формата : Big
Идентификатор кодека : 2000
Продолжительность : 1 ч. 32 м.
Вид битрейта : Постоянный
Битрейт : 384 Кбит/сек
Каналы : 6 каналов
Расположение каналов : Front: L C R, Side: L R, LFE
Частота : 48,0 КГц
Битовая глубина : 16 бит
Метод сжатия : С потерями
Размер потока : 253 Мбайт (17%)
Выравнивание : Разделение по промежуткам
Продолжительность промежутка : 42 мс. (1,00 видеокадр)
Время предзагрузки промежутка : 500 мс.
-
-
Download / Скачать

Хотите скачать бесплатно? Зарегистрируйтесь на сайте (ссылка на регистрацию). Pirat.ca - самый быстрый торрент трекер в рунете!

Как скачивать  ·   Что такое торрент  ·   Рейтинг и ограничения

ss80

Гроза морей

36

Пост 16-Дек-2017 14:37 (спустя 15 минут)

[Q] 

Спасибо!!!
[Профиль]  [ЛС] 

Golsergio

Гроза морей

Пост 16-Дек-2017 16:40 (спустя 2 часа 3 минуты)

[Q] 

ну и как мульт?
[Профиль]  [ЛС] 

buzuvir

Корсар

Пост 18-Дек-2017 00:58 (спустя 1 день 8 часов)

[Q] 

Мульт скачан более 100 раз и кроме спасибо и вопроса как мульт ничего.
Отпишитесь плиз кто смотрел. Кто здеся?

_________________
[Профиль]  [ЛС] 

Csavargo

Лоцман

Пост 22-Дек-2017 23:55 (спустя 4 дня)

[Q] 

прикольный мульт)

_________________
Завидую я крокодилам,они даже ходят лёжа.
[Профиль]  [ЛС] 

Azatkaz

Морской Волк

Пост 28-Дек-2017 22:29 (спустя 5 дней)

[Q] 

Отличный мульт))) для просмотра всей семьей)))) Спасибо!!!
[Профиль]  [ЛС] 

Пост 27-Янв-2018 16:42 (спустя 29 дней)

Топик был перенесен из форума Новинки (HD|DVD|BD| TV|SAT|PDTV| - Rips) в форум Зарубежные полнометражные мультфильмы
aleksey99
 

p1usheg

Корсар

Пост 05-Мар-2018 22:46 (спустя 2 месяца 8 дней)

[Q] 

Мультик достойный и даже на уровне всяких диснеев и пиксаров!!!!!!!!!
[Профиль]  [ЛС] 

Sharifulla

Корсар

Пост 06-Мар-2018 21:06 (спустя 22 часа)

[Q] 

Хороший мультфильм, детям понравилось, душевный.
[Профиль]  [ЛС] 
Показать сообщения:    
Ответить на тему

Текущее время: Сегодня 19:49

Часовой пояс: GMT + 4



Вы не можете начинать темы
Вы не можете отвечать на сообщения
Вы не можете редактировать свои сообщения
Вы не можете удалять свои сообщения
Вы не можете голосовать в опросах
Вы не можете прикреплять файлы к сообщениям
Вы не можете скачивать файлы

Майнать ▼