(Melodic Hard Rock) Stormburst - Raised On Rock - 2017 [FLAC, tracks +.cue, lossless]

Ответить на тему
 
Автор
Сообщение

Пост 08-Мар-2018 15:10

[Q] 

sergej644

-Stormburst - Raised On Rock--
Год издания: 2017
Страна: Sweden
Жанр: Melodic Hard Rock
Продолжительность: 00:49:54-Лейбл издания: Aor Heaven
Страна-выпуска диска: Germany
Номер по каталогу: AORH00150-Формат: FLAC
Битрейт аудио: Lossless
Тип рипа: tracks +.cue
Наличие сканов в содержимом раздачи: да
-

01. Show me the way (4:10)
02. Say you will (3:09)
03. Under the gun (3:59)
04. Show me a sign (3:50)
05. Touched by love (4:01)
06. Give me (3:28)
07. Raised on rock (4:07)
08. Chains of darkness (3:30)
09. Never too late (3:23)
10. Lay your love on me (3:15)
11. All i want is you (3:44)
12. Lost and blue (3:22)
13. Restless hearts (2:49)
14. I'm going down (3:08)
-
Код:
Exact Audio Copy V1.3 from 2. September 2016
EAC extraction logfile from 2. March 2018, 11:26
Stormburst / Raised On Rock
Used drive  : TSSTcorpCDDVDW SH-S222A   Adapter: 1  ID: 0
Read mode               : Secure
Utilize accurate stream : Yes
Defeat audio cache      : Yes
Make use of C2 pointers : No
Read offset correction                      : 6
Overread into Lead-In and Lead-Out          : No
Fill up missing offset samples with silence : Yes
Delete leading and trailing silent blocks   : No
Null samples used in CRC calculations       : Yes
Used interface                              : Native Win32 interface for Win NT & 2000
Gap handling                                : Appended to previous track
Used output format              : User Defined Encoder
Selected bitrate                : 896 kBit/s
Quality                         : High
Add ID3 tag                     : No
Command line compressor         : C:\Program Files\Exact Audio Copy\FLAC\FLAC.EXE
Additional command line options : -6 -V -T "ARTIST=%artist%" -T "TITLE=%title%" -T "ALBUM=%albumtitle%" -T "DATE=%year%" -T "TRACKNUMBER=%tracknr%" -T "GENRE=%genre%" -T "COMMENT=%comment%" -T "BAND=%albuminterpret%" -T "ALBUMARTIST=%albuminterpret%" -T "COMPOSER=%composer%" %haslyrics%--tag-from-file=LYRICS="%lyricsfile%"%haslyrics% -T "DISCNUMBER=%cdnumber%" -T "TOTALDISCS=%totalcds%" -T "TOTALTRACKS=%numtracks%" %hascover%--picture="%coverfile%"%hascover% %source% -o %dest%
TOC of the extracted CD
     Track |   Start  |  Length  | Start sector | End sector
    ---------------------------------------------------------
        1  |  0:00.00 |  4:09.61 |         0    |    18735
        2  |  4:09.61 |  3:08.39 |     18736    |    32874
        3  |  7:18.25 |  3:58.67 |     32875    |    50791
        4  | 11:17.17 |  3:49.51 |     50792    |    68017
        5  | 15:06.68 |  4:00.60 |     68018    |    86077
        6  | 19:07.53 |  3:27.40 |     86078    |   101642
        7  | 22:35.18 |  4:07.19 |    101643    |   120186
        8  | 26:42.37 |  3:30.07 |    120187    |   135943
        9  | 30:12.44 |  3:23.20 |    135944    |   151188
       10  | 33:35.64 |  3:15.15 |    151189    |   165828
       11  | 36:51.04 |  3:44.09 |    165829    |   182637
       12  | 40:35.13 |  3:21.41 |    182638    |   197753
       13  | 43:56.54 |  2:49.19 |    197754    |   210447
       14  | 46:45.73 |  3:08.13 |    210448    |   224560
Track  1
     Filename D:\Music\Мои раздачи\01 Show me the way.wav
     Pre-gap length  0:00:02.00
     Peak level 100.0 %
     Extraction speed 4.6 X
     Track quality 100.0 %
     Test CRC 6A4F91AB
     Copy CRC 6A4F91AB
     Cannot be verified as accurate (confidence 2)  [C40D2853], AccurateRip returned [A5402540]  (AR v2)
     Copy OK
Track  2
     Filename D:\Music\Мои раздачи\02 Say you will.wav
     Peak level 100.0 %
     Extraction speed 4.8 X
     Track quality 100.0 %
     Test CRC DB3861ED
     Copy CRC DB3861ED
     Cannot be verified as accurate (confidence 2)  [2789605F], AccurateRip returned [51D4094C]  (AR v2)
     Copy OK
Track  3
     Filename D:\Music\Мои раздачи\03 Under the gun.wav
     Peak level 100.0 %
     Extraction speed 5.1 X
     Track quality 100.0 %
     Test CRC B1AF4762
     Copy CRC B1AF4762
     Cannot be verified as accurate (confidence 2)  [A5F90CFF], AccurateRip returned [0F9FAADB]  (AR v2)
     Copy OK
Track  4
     Filename D:\Music\Мои раздачи\04 Show me a sign.wav
     Peak level 100.0 %
     Extraction speed 5.3 X
     Track quality 100.0 %
     Test CRC D3E3B626
     Copy CRC D3E3B626
     Cannot be verified as accurate (confidence 2)  [562A87CC], AccurateRip returned [989BB9BF]  (AR v2)
     Copy OK
Track  5
     Filename D:\Music\Мои раздачи\05 Touched by love.wav
     Peak level 100.0 %
     Extraction speed 6.0 X
     Track quality 100.0 %
     Test CRC 1D674469
     Copy CRC 1D674469
     Cannot be verified as accurate (confidence 2)  [843E8164], AccurateRip returned [4B3165B6]  (AR v2)
     Copy OK
Track  6
     Filename D:\Music\Мои раздачи\06 Give me.wav
     Peak level 100.0 %
     Extraction speed 6.0 X
     Track quality 100.0 %
     Test CRC 1E55AB19
     Copy CRC 1E55AB19
     Cannot be verified as accurate (confidence 2)  [89B599AC], AccurateRip returned [913A3F1C]  (AR v2)
     Copy OK
Track  7
     Filename D:\Music\Мои раздачи\07 Raised on rock.wav
     Peak level 100.0 %
     Extraction speed 6.2 X
     Track quality 100.0 %
     Test CRC 1591173C
     Copy CRC 1591173C
     Cannot be verified as accurate (confidence 2)  [AF4DB145], AccurateRip returned [6D78F1A8]  (AR v2)
     Copy OK
Track  8
     Filename D:\Music\Мои раздачи\08 Chains of darkness.wav
     Peak level 100.0 %
     Extraction speed 6.5 X
     Track quality 100.0 %
     Test CRC F509F02F
     Copy CRC F509F02F
     Cannot be verified as accurate (confidence 2)  [91F8A8C1], AccurateRip returned [3B6E72AD]  (AR v2)
     Copy OK
Track  9
     Filename D:\Music\Мои раздачи\09 Never too late.wav
     Peak level 100.0 %
     Extraction speed 6.8 X
     Track quality 100.0 %
     Test CRC 34DAEFE5
     Copy CRC 34DAEFE5
     Cannot be verified as accurate (confidence 2)  [88ED8037], AccurateRip returned [241ED00C]  (AR v2)
     Copy OK
Track 10
     Filename D:\Music\Мои раздачи\10 Lay your love on me.wav
     Peak level 100.0 %
     Extraction speed 5.8 X
     Track quality 99.9 %
     Test CRC E371CF46
     Copy CRC E371CF46
     Cannot be verified as accurate (confidence 2)  [00B8D903], AccurateRip returned [6779F3CC]  (AR v2)
     Copy OK
Track 11
     Filename D:\Music\Мои раздачи\11 All i want is you.wav
     Peak level 100.0 %
     Extraction speed 6.3 X
     Track quality 99.9 %
     Test CRC C8747DEB
     Copy CRC C8747DEB
     Cannot be verified as accurate (confidence 2)  [E798F54A], AccurateRip returned [6923759A]  (AR v2)
     Copy OK
Track 12
     Filename D:\Music\Мои раздачи\12 Lost and blue.wav
     Peak level 100.0 %
     Extraction speed 7.2 X
     Track quality 100.0 %
     Test CRC EBE64E9E
     Copy CRC EBE64E9E
     Cannot be verified as accurate (confidence 2)  [5C054BBC], AccurateRip returned [11FDDA9C]  (AR v2)
     Copy OK
Track 13
     Filename D:\Music\Мои раздачи\13 Restless hearts.wav
     Peak level 100.0 %
     Extraction speed 7.2 X
     Track quality 100.0 %
     Test CRC A13C2CE7
     Copy CRC A13C2CE7
     Cannot be verified as accurate (confidence 2)  [E85B859B], AccurateRip returned [215774BE]  (AR v2)
     Copy OK
Track 14
     Filename D:\Music\Мои раздачи\14 I'm going down.wav
     Peak level 100.0 %
     Extraction speed 6.1 X
     Track quality 100.0 %
     Test CRC 7970E383
     Copy CRC 7970E383
     Cannot be verified as accurate (confidence 2)  [31BFC668], AccurateRip returned [9A347DF0]  (AR v2)
     Copy OK
No tracks could be verified as accurate
You may have a different pressing from the one(s) in the database
No errors occurred
End of status report
Код:
REM GENRE Rock
REM DATE 2017
REM DISCID B70BB20E
REM COMMENT "ExactAudioCopy v1.3"
PERFORMER "Stormburst"
TITLE "Raised on rock"
REM COMPOSER ""
FILE "01 Show me the way.wav" WAVE
  TRACK 01 AUDIO
    TITLE "Show me the way"
    PERFORMER "Stormburst"
    REM COMPOSER ""
    INDEX 01 00:00:00
FILE "02 Say you will.wav" WAVE
  TRACK 02 AUDIO
    TITLE "Say you will"
    PERFORMER "Stormburst"
    REM COMPOSER ""
    INDEX 01 00:00:00
FILE "03 Under the gun.wav" WAVE
  TRACK 03 AUDIO
    TITLE "Under the gun"
    PERFORMER "Stormburst"
    REM COMPOSER ""
    INDEX 01 00:00:00
FILE "04 Show me a sign.wav" WAVE
  TRACK 04 AUDIO
    TITLE "Show me a sign"
    PERFORMER "Stormburst"
    REM COMPOSER ""
    INDEX 01 00:00:00
FILE "05 Touched by love.wav" WAVE
  TRACK 05 AUDIO
    TITLE "Touched by love"
    PERFORMER "Stormburst"
    REM COMPOSER ""
    INDEX 01 00:00:00
FILE "06 Give me.wav" WAVE
  TRACK 06 AUDIO
    TITLE "Give me"
    PERFORMER "Stormburst"
    REM COMPOSER ""
    INDEX 01 00:00:00
FILE "07 Raised on rock.wav" WAVE
  TRACK 07 AUDIO
    TITLE "Raised on rock"
    PERFORMER "Stormburst"
    REM COMPOSER ""
    INDEX 01 00:00:00
FILE "08 Chains of darkness.wav" WAVE
  TRACK 08 AUDIO
    TITLE "Chains of darkness"
    PERFORMER "Stormburst"
    REM COMPOSER ""
    INDEX 01 00:00:00
FILE "09 Never too late.wav" WAVE
  TRACK 09 AUDIO
    TITLE "Never too late"
    PERFORMER "Stormburst"
    REM COMPOSER ""
    INDEX 01 00:00:00
FILE "10 Lay your love on me.wav" WAVE
  TRACK 10 AUDIO
    TITLE "Lay your love on me"
    PERFORMER "Stormburst"
    REM COMPOSER ""
    INDEX 01 00:00:00
FILE "11 All i want is you.wav" WAVE
  TRACK 11 AUDIO
    TITLE "All i want is you"
    PERFORMER "Stormburst"
    REM COMPOSER ""
    INDEX 01 00:00:00
FILE "12 Lost and blue.wav" WAVE
  TRACK 12 AUDIO
    TITLE "Lost and blue"
    PERFORMER "Stormburst"
    REM COMPOSER ""
    INDEX 01 00:00:00
FILE "13 Restless hearts.wav" WAVE
  TRACK 13 AUDIO
    TITLE "Restless hearts"
    PERFORMER "Stormburst"
    REM COMPOSER ""
    INDEX 01 00:00:00
FILE "14 I'm going down.wav" WAVE
  TRACK 14 AUDIO
    TITLE "I'm going down"
    PERFORMER "Stormburst"
    REM COMPOSER ""
    INDEX 01 00:00:00
- --
Download / Скачать

Хотите скачать бесплатно? Зарегистрируйтесь на сайте (ссылка на регистрацию). Pirat.ca - самый быстрый торрент трекер в рунете!

Как скачивать  ·   Что такое торрент  ·   Рейтинг и ограничения

Показать сообщения:    
Ответить на тему

Текущее время: Сегодня 09:05

Часовой пояс: GMT + 4



Вы не можете начинать темы
Вы не можете отвечать на сообщения
Вы не можете редактировать свои сообщения
Вы не можете удалять свои сообщения
Вы не можете голосовать в опросах
Вы не можете прикреплять файлы к сообщениям
Вы не можете скачивать файлы

Майнать ▼