(Symphonic Gothic Metal) Diabulus In Musica - Discography (4CD) - 2010-2016 [FLAC, image +.cue, lossless]

Ответить на тему
 
Автор
Сообщение

Пост 08-Мар-2018 20:32

[Q] 

sergej644

-Diabulus In Musica - Discography (4CD)--
Год издания: 2010 - 2016
Страна: Spain
Жанр: Symphonic Gothic Metal
Продолжительность: 03:51:56-Лейбл издания: указано к альбому
Страна-выпуска диска: Germany
Номер по каталогу: указано к альбому-Формат: FLAC
Битрейт аудио: Lossless
Тип рипа: image +.cue
Наличие сканов в содержимом раздачи: да
-

Лейбл издания: Metal Blade Records
Страна-выпуска диска: Germany
Номер по каталогу: 3984-14908-2
Продолжительность: 00:55:29



01. Renaissance (0:52)
02. Come To Paradise (4:48)
03. Nocturnal Flowers (4:23)
04. Evolution's Whim (4:23)
05. New Era (4:55)
06. Lies In Your Eyes (3:57)
07. Lonely Soul (3:50)
08. The Seventh Gate (1:13)
09. Ishtar (4:03)
10. Under The Shadow (Of A Butterfly) (4:27)
11. Beyond Infinity (4:15)
12. The Forest Of Ashes (6:27)
13. St.Michael's Nightmare (7:54)

Лейбл издания: Napalm Records
Страна-выпуска диска: Germany
Номер по каталогу: NPR 415
Продолжительность: 00:54:49



01. A Journey's End (2:15)
02. Ex Nihilo (5:32)
03. Sceneries Of Hope (3:51)
04. Blazing A Trail (4:03)
05. Call From A Rising Memory (Intro) (1:18)
06. Hidden Reality (4:43)
07. Shadow Of The Throne (4:45)
08. Allegory Of Faith, Innocence And Future (5:20)
09. Sentenced To Life (5:03)
10. Oihuka Bihotzetik (4:52)
11. No Time For Repentance (Lamentatio) (8:29)
12. The Wanderer (4:38)

Лейбл издания: Napalm Records
Страна-выпуска диска: Germany
Номер по каталогу: NPR 536
Продолжительность: 00:54:57



01. Et Resurrexit (Libera Me) (3:00)
02. From The Embers (4:48)
03. Inner Force (3:43)
04. Furia De Libertad (4:39)
05. Maitagarri (5:49)
06. Sed Diabolus (1:07)
07. Spoilt Vampire (4:32)
08. Eternal Breeze (5:03)
09. Mechanical Ethos (4:27)
10. Encounter At Chronos' Maze (6:09)
11. Indigo (4:03)
12. Healing (6:20)
13. Horizons (1:18)

Лейбл издания: Napalm Records
Страна-выпуска диска: Germany
Номер по каталогу: NPR 690 DP
Продолжительность: 01:06:42



01. Battle Of Atlantis (1:00)
02. Earthly Illusions (5:05)
03. Marble Embrace (3:46)
04. Invisible (5:50)
05. Crimson Gale (4:09)
06. Ring Around Dark Fairies' Carousel (5:35)
07. A Speck In The Universe (4:54)
08. Hiding From You (5:22)
09. The Voice Of Your Dreams (4:47)
10. The Hawk's Lament (1:22)
11. Bane (4:09)
12. The River Of Loss (4:59)
13. Zauria (2:54)
14. Lies In Your Eyes (4:13)
15. St. Michael's Nightmare (8:34)
-
Код:
Exact Audio Copy V1.1 from 23. June 2015
EAC extraction logfile from 29. October 2016, 18:43
Diabulus In Musica / Secrets
Used drive  : HP      DVD Writer 1170d   Adapter: 1  ID: 1
Read mode               : Secure
Utilize accurate stream : Yes
Defeat audio cache      : Yes
Make use of C2 pointers : No
Read offset correction                      : 6
Overread into Lead-In and Lead-Out          : No
Fill up missing offset samples with silence : Yes
Delete leading and trailing silent blocks   : No
Null samples used in CRC calculations       : Yes
Used interface                              : Native Win32 interface for Win NT & 2000
Used output format              : User Defined Encoder
Selected bitrate                : 1024 kBit/s
Quality                         : Low
Add ID3 tag                     : No
Command line compressor         : C:\Program Files (x86)\Exact Audio Copy\FLAC\FLAC.EXE
Additional command line options : -V -8 -T "Date=%year%" -T "Genre=%genre%" -T"COMMENT=Ripped by Ungern666" -8 -V %source%
TOC of the extracted CD
     Track |   Start  |  Length  | Start sector | End sector
    ---------------------------------------------------------
        1  |  0:00.00 |  0:52.21 |         0    |     3920
        2  |  0:52.21 |  4:47.69 |      3921    |    25514
        3  |  5:40.15 |  4:23.21 |     25515    |    45260
        4  | 10:03.36 |  4:23.08 |     45261    |    64993
        5  | 14:26.44 |  4:55.26 |     64994    |    87144
        6  | 19:21.70 |  3:57.33 |     87145    |   104952
        7  | 23:19.28 |  3:50.12 |    104953    |   122214
        8  | 27:09.40 |  1:13.26 |    122215    |   127715
        9  | 28:22.66 |  4:03.07 |    127716    |   145947
       10  | 32:25.73 |  4:26.56 |    145948    |   165953
       11  | 36:52.54 |  4:15.34 |    165954    |   185112
       12  | 41:08.13 |  6:26.43 |    185113    |   214105
       13  | 47:34.56 |  7:53.69 |    214106    |   249649
Range status and errors
Selected range
     Filename C:\EAC\Ungern666\Diabulus In Musica - Secrets.wav
     Peak level 98.8 %
     Extraction speed 5.8 X
     Range quality 100.0 %
     Test CRC 142EB5F8
     Copy CRC 142EB5F8
     Copy OK
No errors occurred
AccurateRip summary
Track  1  accurately ripped (confidence 26)  [2E49F6E4]  (AR v2)
Track  2  accurately ripped (confidence 25)  [B5E1E0AC]  (AR v2)
Track  3  accurately ripped (confidence 25)  [2E0977F7]  (AR v2)
Track  4  accurately ripped (confidence 25)  [BF7EDC99]  (AR v2)
Track  5  accurately ripped (confidence 25)  [5F8720D3]  (AR v2)
Track  6  accurately ripped (confidence 25)  [9C5B642C]  (AR v2)
Track  7  accurately ripped (confidence 25)  [105CBD74]  (AR v2)
Track  8  accurately ripped (confidence 25)  [5D732925]  (AR v2)
Track  9  accurately ripped (confidence 25)  [254D7C90]  (AR v2)
Track 10  accurately ripped (confidence 25)  [DA58E33E]  (AR v2)
Track 11  accurately ripped (confidence 25)  [496EB1C4]  (AR v2)
Track 12  accurately ripped (confidence 25)  [3EE94AB0]  (AR v2)
Track 13  accurately ripped (confidence 24)  [6B0EEBDB]  (AR v2)
All tracks accurately ripped
End of status report
Код:
Exact Audio Copy V1.1 from 23. June 2015
EAC extraction logfile from 29. October 2016, 18:19
Diabulus In Musica / The Wanderer
Used drive  : HP      DVD Writer 1170d   Adapter: 1  ID: 1
Read mode               : Secure
Utilize accurate stream : Yes
Defeat audio cache      : Yes
Make use of C2 pointers : No
Read offset correction                      : 6
Overread into Lead-In and Lead-Out          : No
Fill up missing offset samples with silence : Yes
Delete leading and trailing silent blocks   : No
Null samples used in CRC calculations       : Yes
Used interface                              : Native Win32 interface for Win NT & 2000
Used output format              : User Defined Encoder
Selected bitrate                : 1024 kBit/s
Quality                         : Low
Add ID3 tag                     : No
Command line compressor         : C:\Program Files (x86)\Exact Audio Copy\FLAC\FLAC.EXE
Additional command line options : -V -8 -T "Date=%year%" -T "Genre=%genre%" -T"COMMENT=Ripped by Ungern666" -8 -V %source%
TOC of the extracted CD
     Track |   Start  |  Length  | Start sector | End sector
    ---------------------------------------------------------
        1  |  0:00.00 |  2:15.08 |         0    |    10132
        2  |  2:15.08 |  5:32.05 |     10133    |    35037
        3  |  7:47.13 |  3:51.04 |     35038    |    52366
        4  | 11:38.17 |  4:03.11 |     52367    |    70602
        5  | 15:41.28 |  1:17.40 |     70603    |    76417
        6  | 16:58.68 |  4:43.29 |     76418    |    97671
        7  | 21:42.22 |  4:45.06 |     97672    |   119052
        8  | 26:27.28 |  5:19.41 |    119053    |   143018
        9  | 31:46.69 |  5:02.74 |    143019    |   165742
       10  | 36:49.68 |  4:52.05 |    165743    |   187647
       11  | 41:41.73 |  8:28.50 |    187648    |   225797
       12  | 50:10.48 |  4:37.69 |    225798    |   246641
Range status and errors
Selected range
     Filename C:\EAC\Ungern666\Diabulus In Musica - The Wanderer.wav
     Peak level 98.9 %
     Extraction speed 7.3 X
     Range quality 100.0 %
     Test CRC 4DFE0DB9
     Copy CRC 4DFE0DB9
     Copy OK
No errors occurred
AccurateRip summary
Track  1  accurately ripped (confidence 24)  [BAA733D5]  (AR v2)
Track  2  accurately ripped (confidence 23)  [3CA419BB]  (AR v2)
Track  3  accurately ripped (confidence 24)  [EE36D7CB]  (AR v2)
Track  4  accurately ripped (confidence 24)  [7C373C92]  (AR v2)
Track  5  accurately ripped (confidence 24)  [AA10DE86]  (AR v2)
Track  6  accurately ripped (confidence 24)  [B7874B0A]  (AR v2)
Track  7  accurately ripped (confidence 23)  [CB827817]  (AR v2)
Track  8  accurately ripped (confidence 24)  [C662EE65]  (AR v2)
Track  9  accurately ripped (confidence 23)  [B4FE3327]  (AR v2)
Track 10  accurately ripped (confidence 24)  [42C908FC]  (AR v2)
Track 11  accurately ripped (confidence 24)  [75BFD4CB]  (AR v2)
Track 12  accurately ripped (confidence 24)  [2F980102]  (AR v2)
All tracks accurately ripped
End of status report
Код:
Exact Audio Copy V1.1 from 23. June 2015
EAC extraction logfile from 29. October 2016, 17:59
Diabulus In Musica / Argia
Used drive  : TSSTcorpBDDVDW SE-506CB   Adapter: 1  ID: 1
Read mode               : Secure
Utilize accurate stream : Yes
Defeat audio cache      : Yes
Make use of C2 pointers : No
Read offset correction                      : 6
Overread into Lead-In and Lead-Out          : No
Fill up missing offset samples with silence : Yes
Delete leading and trailing silent blocks   : No
Null samples used in CRC calculations       : Yes
Used interface                              : Native Win32 interface for Win NT & 2000
Used output format              : User Defined Encoder
Selected bitrate                : 1024 kBit/s
Quality                         : Low
Add ID3 tag                     : No
Command line compressor         : C:\Program Files (x86)\Exact Audio Copy\FLAC\FLAC.EXE
Additional command line options : -V -8 -T "Date=%year%" -T "Genre=%genre%" -T"COMMENT=Ripped by Ungern666" -8 -V %source%
TOC of the extracted CD
     Track |   Start  |  Length  | Start sector | End sector
    ---------------------------------------------------------
        1  |  0:00.00 |  2:59.48 |         0    |    13472
        2  |  2:59.48 |  4:47.44 |     13473    |    35041
        3  |  7:47.17 |  3:43.32 |     35042    |    51798
        4  | 11:30.49 |  4:39.36 |     51799    |    72759
        5  | 16:10.10 |  5:48.67 |     72760    |    98926
        6  | 21:59.02 |  1:07.06 |     98927    |   103957
        7  | 23:06.08 |  4:31.69 |    103958    |   124351
        8  | 27:38.02 |  5:02.70 |    124352    |   147071
        9  | 32:40.72 |  4:27.06 |    147072    |   167102
       10  | 37:08.03 |  6:08.67 |    167103    |   194769
       11  | 43:16.70 |  4:03.08 |    194770    |   213002
       12  | 47:20.03 |  6:19.38 |    213003    |   241465
       13  | 53:39.41 |  1:17.54 |    241466    |   247294
Range status and errors
Selected range
     Filename C:\EAC\Ungern666\Diabulus In Musica - Argia.wav
     Peak level 98.9 %
     Extraction speed 1.7 X
     Range quality 99.9 %
     Test CRC 8716ED33
     Copy CRC 8716ED33
     Copy OK
No errors occurred
AccurateRip summary
Track  1  accurately ripped (confidence 19)  [8C2ED107]  (AR v2)
Track  2  accurately ripped (confidence 21)  [CF98BCC0]  (AR v2)
Track  3  accurately ripped (confidence 22)  [1202013D]  (AR v2)
Track  4  accurately ripped (confidence 21)  [A15860FC]  (AR v2)
Track  5  accurately ripped (confidence 21)  [B4AA99A2]  (AR v2)
Track  6  accurately ripped (confidence 21)  [36F618A5]  (AR v2)
Track  7  accurately ripped (confidence 22)  [CF717290]  (AR v2)
Track  8  accurately ripped (confidence 21)  [1472CAC8]  (AR v2)
Track  9  accurately ripped (confidence 21)  [5CA727D0]  (AR v2)
Track 10  accurately ripped (confidence 21)  [CD1EB5F7]  (AR v2)
Track 11  accurately ripped (confidence 21)  [69CE172B]  (AR v2)
Track 12  accurately ripped (confidence 21)  [ABEAF35F]  (AR v2)
Track 13  accurately ripped (confidence 21)  [7399FDB8]  (AR v2)
All tracks accurately ripped
End of status report
Код:
Exact Audio Copy V1.1 from 23. June 2015
EAC extraction logfile from 1. December 2016, 12:32
Diabulus In Musica / Dirge For The Archons
Used drive  : HP      DVD Writer 1170d   Adapter: 1  ID: 1
Read mode               : Secure
Utilize accurate stream : Yes
Defeat audio cache      : Yes
Make use of C2 pointers : No
Read offset correction                      : 6
Overread into Lead-In and Lead-Out          : No
Fill up missing offset samples with silence : Yes
Delete leading and trailing silent blocks   : No
Null samples used in CRC calculations       : Yes
Used interface                              : Native Win32 interface for Win NT & 2000
Used output format              : User Defined Encoder
Selected bitrate                : 1024 kBit/s
Quality                         : High
Add ID3 tag                     : No
Command line compressor         : C:\Program Files (x86)\Exact Audio Copy\Flac\flac.exe
Additional command line options : -V -8 -T "Date=%year%" -T "Genre=%genre%" %source%
TOC of the extracted CD
     Track |   Start  |  Length  | Start sector | End sector
    ---------------------------------------------------------
        1  |  0:00.00 |  1:00.34 |         0    |     4533
        2  |  1:00.34 |  5:04.54 |      4534    |    27387
        3  |  6:05.13 |  3:46.25 |     27388    |    44362
        4  |  9:51.38 |  5:49.44 |     44363    |    70581
        5  | 15:41.07 |  4:09.28 |     70582    |    89284
        6  | 19:50.35 |  5:35.12 |     89285    |   114421
        7  | 25:25.47 |  4:54.34 |    114422    |   136505
        8  | 30:20.06 |  5:22.14 |    136506    |   160669
        9  | 35:42.20 |  4:47.06 |    160670    |   182200
       10  | 40:29.26 |  1:22.25 |    182201    |   188375
       11  | 41:51.51 |  4:09.22 |    188376    |   207072
       12  | 46:00.73 |  4:59.36 |    207073    |   229533
       13  | 51:00.34 |  2:54.15 |    229534    |   242598
       14  | 53:54.49 |  4:12.66 |    242599    |   261564
       15  | 58:07.40 |  8:34.35 |    261565    |   300149
Range status and errors
Selected range
     Filename C:\EAC\Ungern666\Diabulus In Musica - Dirge For The Archons.wav
     Peak level 98.8 %
     Extraction speed 7.2 X
     Range quality 100.0 %
     Test CRC 076870F2
     Copy CRC 076870F2
     Copy OK
No errors occurred
AccurateRip summary
Track  1  not present in database
Track  2  not present in database
Track  3  not present in database
Track  4  not present in database
Track  5  not present in database
Track  6  not present in database
Track  7  not present in database
Track  8  not present in database
Track  9  not present in database
Track 10  not present in database
Track 11  not present in database
Track 12  not present in database
Track 13  not present in database
Track 14  not present in database
Track 15  not present in database
None of the tracks are present in the AccurateRip database
End of status report
Код:
REM DATE 2010
REM DISCID 9D0D000D
REM COMMENT "ExactAudioCopy v1.1"
PERFORMER "Diabulus In Musica"
TITLE "Secrets"
FILE "Diabulus In Musica - Secrets.flac" WAVE
  TRACK 01 AUDIO
    TITLE "Renaissance"
    PERFORMER "Diabulus In Musica"
    INDEX 01 00:00:00
  TRACK 02 AUDIO
    TITLE "Come To Paradise"
    PERFORMER "Diabulus In Musica"
    INDEX 01 00:52:21
  TRACK 03 AUDIO
    TITLE "Nocturnal Flowers"
    PERFORMER "Diabulus In Musica"
    INDEX 01 05:40:15
  TRACK 04 AUDIO
    TITLE "Evolution's Whim"
    PERFORMER "Diabulus In Musica"
    INDEX 00 10:00:01
    INDEX 01 10:03:36
  TRACK 05 AUDIO
    TITLE "New Era"
    PERFORMER "Diabulus In Musica"
    INDEX 00 14:24:51
    INDEX 01 14:26:44
  TRACK 06 AUDIO
    TITLE "Lies In Your Eyes"
    PERFORMER "Diabulus In Musica"
    INDEX 01 19:21:70
  TRACK 07 AUDIO
    TITLE "Lonely Soul"
    PERFORMER "Diabulus In Musica"
    INDEX 00 23:16:53
    INDEX 01 23:19:28
  TRACK 08 AUDIO
    TITLE "The Seventh Gate"
    PERFORMER "Diabulus In Musica"
    INDEX 01 27:09:40
  TRACK 09 AUDIO
    TITLE "Ishtar"
    PERFORMER "Diabulus In Musica"
    INDEX 01 28:22:66
  TRACK 10 AUDIO
    TITLE "Under The Shadow (Of A Butterfly)"
    PERFORMER "Diabulus In Musica"
    INDEX 00 32:24:35
    INDEX 01 32:25:73
  TRACK 11 AUDIO
    TITLE "Beyond Infinity"
    PERFORMER "Diabulus In Musica"
    INDEX 01 36:52:54
  TRACK 12 AUDIO
    TITLE "The Forest Of Ashes"
    PERFORMER "Diabulus In Musica"
    INDEX 00 41:06:46
    INDEX 01 41:08:13
  TRACK 13 AUDIO
    TITLE "St.Michael's Nightmare"
    PERFORMER "Diabulus In Musica"
    INDEX 00 47:31:25
    INDEX 01 47:34:56
Код:
REM DATE 2012
REM DISCID 810CD80C
REM COMMENT "ExactAudioCopy v1.1"
PERFORMER "Diabulus In Musica"
TITLE "The Wanderer"
FILE "Diabulus In Musica - The Wanderer.flac" WAVE
  TRACK 01 AUDIO
    TITLE "A Journey's End"
    PERFORMER "Diabulus In Musica"
    INDEX 01 00:00:00
  TRACK 02 AUDIO
    TITLE "Ex Nihilo"
    PERFORMER "Diabulus In Musica"
    INDEX 01 02:15:08
  TRACK 03 AUDIO
    TITLE "Sceneries Of Hope"
    PERFORMER "Diabulus In Musica"
    INDEX 00 07:45:33
    INDEX 01 07:47:13
  TRACK 04 AUDIO
    TITLE "Blazing A Trail"
    PERFORMER "Diabulus In Musica"
    INDEX 01 11:38:17
  TRACK 05 AUDIO
    TITLE "Call From A Rising Memory (Intro)"
    PERFORMER "Diabulus In Musica"
    INDEX 01 15:41:28
  TRACK 06 AUDIO
    TITLE "Hidden Reality"
    PERFORMER "Diabulus In Musica"
    INDEX 01 16:58:68
  TRACK 07 AUDIO
    TITLE "Shadow Of The Throne"
    PERFORMER "Diabulus In Musica"
    INDEX 01 21:42:22
  TRACK 08 AUDIO
    TITLE "Allegory Of Faith, Innocence And Future"
    PERFORMER "Diabulus In Musica"
    INDEX 00 26:24:72
    INDEX 01 26:27:28
  TRACK 09 AUDIO
    TITLE "Sentenced To Life"
    PERFORMER "Diabulus In Musica"
    INDEX 01 31:46:69
  TRACK 10 AUDIO
    TITLE "Oihuka Bihotzetik"
    PERFORMER "Diabulus In Musica"
    INDEX 00 36:46:21
    INDEX 01 36:49:68
  TRACK 11 AUDIO
    TITLE "No Time For Repentance (Lamentatio)"
    PERFORMER "Diabulus In Musica"
    INDEX 01 41:41:73
  TRACK 12 AUDIO
    TITLE "The Wanderer"
    PERFORMER "Diabulus In Musica"
    INDEX 01 50:10:48
Код:
REM DATE 2014
REM DISCID B30CE10D
REM COMMENT "ExactAudioCopy v1.1"
PERFORMER "Diabulus In Musica"
TITLE "Argia"
FILE "Diabulus In Musica - Argia.flac" WAVE
  TRACK 01 AUDIO
    TITLE "Et Resurrexit (Libera Me)"
    PERFORMER "Diabulus In Musica"
    INDEX 01 00:00:00
  TRACK 02 AUDIO
    TITLE "From The Embers"
    PERFORMER "Diabulus In Musica"
    INDEX 01 02:59:48
  TRACK 03 AUDIO
    TITLE "Inner Force"
    PERFORMER "Diabulus In Musica"
    INDEX 01 07:47:17
  TRACK 04 AUDIO
    TITLE "Furia De Libertad"
    PERFORMER "Diabulus In Musica"
    INDEX 01 11:30:49
  TRACK 05 AUDIO
    TITLE "Maitagarri"
    PERFORMER "Diabulus In Musica"
    INDEX 01 16:10:10
  TRACK 06 AUDIO
    TITLE "Sed Diabolus"
    PERFORMER "Diabulus In Musica"
    INDEX 01 21:59:02
  TRACK 07 AUDIO
    TITLE "Spoilt Vampire"
    PERFORMER "Diabulus In Musica"
    INDEX 01 23:06:08
  TRACK 08 AUDIO
    TITLE "Eternal Breeze"
    PERFORMER "Diabulus In Musica"
    INDEX 01 27:38:02
  TRACK 09 AUDIO
    TITLE "Mechanical Ethos"
    PERFORMER "Diabulus In Musica"
    INDEX 01 32:40:72
  TRACK 10 AUDIO
    TITLE "Encounter At Chronos' Maze"
    PERFORMER "Diabulus In Musica"
    INDEX 01 37:08:03
  TRACK 11 AUDIO
    TITLE "Indigo"
    PERFORMER "Diabulus In Musica"
    INDEX 01 43:16:70
  TRACK 12 AUDIO
    TITLE "Healing"
    PERFORMER "Diabulus In Musica"
    INDEX 01 47:20:03
  TRACK 13 AUDIO
    TITLE "Horizons"
    PERFORMER "Diabulus In Musica"
    INDEX 01 53:39:41
Код:
REM DATE 2016
REM DISCID C60FA20F
REM COMMENT "ExactAudioCopy v1.1"
PERFORMER "Diabulus In Musica"
TITLE "Dirge For The Archons"
FILE "Diabulus In Musica - Dirge For The Archons.flac" WAVE
  TRACK 01 AUDIO
    TITLE "Battle Of Atlantis"
    PERFORMER "Diabulus In Musica"
    INDEX 01 00:00:00
  TRACK 02 AUDIO
    TITLE "Earthly Illusions"
    PERFORMER "Diabulus In Musica"
    INDEX 01 01:00:34
  TRACK 03 AUDIO
    TITLE "Marble Embrace"
    PERFORMER "Diabulus In Musica"
    INDEX 01 06:05:13
  TRACK 04 AUDIO
    TITLE "Invisible"
    PERFORMER "Diabulus In Musica"
    INDEX 01 09:51:38
  TRACK 05 AUDIO
    TITLE "Crimson Gale"
    PERFORMER "Diabulus In Musica"
    INDEX 01 15:41:07
  TRACK 06 AUDIO
    TITLE "Ring Around Dark Fairies' Carousel"
    PERFORMER "Diabulus In Musica"
    INDEX 01 19:50:35
  TRACK 07 AUDIO
    TITLE "A Speck In The Universe"
    PERFORMER "Diabulus In Musica"
    INDEX 01 25:25:47
  TRACK 08 AUDIO
    TITLE "Hiding From You"
    PERFORMER "Diabulus In Musica"
    INDEX 01 30:20:06
  TRACK 09 AUDIO
    TITLE "The Voice Of Your Dreams"
    PERFORMER "Diabulus In Musica"
    INDEX 01 35:42:20
  TRACK 10 AUDIO
    TITLE "The Hawk's Lament"
    PERFORMER "Diabulus In Musica"
    INDEX 01 40:29:26
  TRACK 11 AUDIO
    TITLE "Bane"
    PERFORMER "Diabulus In Musica"
    INDEX 01 41:51:51
  TRACK 12 AUDIO
    TITLE "The River Of Loss"
    PERFORMER "Diabulus In Musica"
    INDEX 01 46:00:73
  TRACK 13 AUDIO
    TITLE "Zauria"
    PERFORMER "Diabulus In Musica"
    INDEX 01 51:00:34
  TRACK 14 AUDIO
    TITLE "Lies In Your Eyes"
    PERFORMER "Diabulus In Musica"
    INDEX 00 53:54:02
    INDEX 01 53:54:49
  TRACK 15 AUDIO
    TITLE "St. Michael's Nightmare"
    PERFORMER "Diabulus In Musica"
    INDEX 01 58:07:40
- --
Download / Скачать

Хотите скачать бесплатно? Зарегистрируйтесь на сайте (ссылка на регистрацию). Pirat.ca - самый быстрый торрент трекер в рунете!

Как скачивать  ·   Что такое торрент  ·   Рейтинг и ограничения

Показать сообщения:    
Ответить на тему

Текущее время: Сегодня 13:38

Часовой пояс: GMT + 4



Вы не можете начинать темы
Вы не можете отвечать на сообщения
Вы не можете редактировать свои сообщения
Вы не можете удалять свои сообщения
Вы не можете голосовать в опросах
Вы не можете прикреплять файлы к сообщениям
Вы не можете скачивать файлы

Майнать ▼