(Heavy Metal) Judas Priest - Firepower (Special Edition) - 2018 [WavPack, image +.cue, lossless]

Ответить на тему
 
Автор
Сообщение

Пост 09-Мар-2018 21:08

[Q] 

sergej644

-Judas Priest - Firepower (Special Edition)--
Год издания: 2018
Страна: UK
Жанр: Heavy Metal
Продолжительность: 00:58:25-Лейбл издания: Sony Music
Страна-выпуска диска: Germany
Номер по каталогу: 19075807382-Формат: WavPack
Битрейт аудио: Lossless
Тип рипа: image +.cue
Наличие сканов в содержимом раздачи: да
-

01. Firepower (3:27)
02. Lightning Strike (3:29)
03. Evil Never Dies (4:23)
04. Never the Heroes (4:24)
05. Necromancer (3:33)
06. Children of the Sun (4:00)
07. Guardians (1:06)
08. Rising from Ruins (5:23)
09. Flame Thrower (4:34)
10. Spectre (4:26)
11. Traitors Gate (5:43)
12. No Surrender (2:54)
13. Lone Wolf (5:09)
14. Sea of Red (5:52)
-
Код:
Exact Audio Copy V1.2 from 12. August 2016
EAC extraction logfile from 9. March 2018, 13:35
Judas Priest / Firepower [19075807382]
Used drive  : HL-DT-STBD-RE  BH10LS38   Adapter: 1  ID: 1
Read mode               : Secure
Utilize accurate stream : Yes
Defeat audio cache      : Yes
Make use of C2 pointers : No
Read offset correction                      : 667
Overread into Lead-In and Lead-Out          : No
Fill up missing offset samples with silence : Yes
Delete leading and trailing silent blocks   : No
Null samples used in CRC calculations       : Yes
Used interface                              : Installed external ASPI interface
Used output format              : User Defined Encoder
Selected bitrate                : 128 kBit/s
Quality                         : High
Add ID3 tag                     : No
Command line compressor         : C:\Program Files (x86)\Exact Audio Copy\wavpack-4.60.1\wavpack.exe
Additional command line options : -hm -w "Year=%year%" -w "Genre=%genre%" %source% %dest%
TOC of the extracted CD
     Track |   Start  |  Length  | Start sector | End sector
    ---------------------------------------------------------
        1  |  0:00.00 |  3:27.31 |         0    |    15555
        2  |  3:27.31 |  3:29.34 |     15556    |    31264
        3  |  6:56.65 |  4:23.03 |     31265    |    50992
        4  | 11:19.68 |  4:23.73 |     50993    |    70790
        5  | 15:43.66 |  3:33.04 |     70791    |    86769
        6  | 19:16.70 |  4:00.17 |     86770    |   104786
        7  | 23:17.12 |  1:06.20 |    104787    |   109756
        8  | 24:23.32 |  5:23.20 |    109757    |   134001
        9  | 29:46.52 |  4:34.08 |    134002    |   154559
       10  | 34:20.60 |  4:25.60 |    154560    |   174494
       11  | 38:46.45 |  5:43.15 |    174495    |   200234
       12  | 44:29.60 |  2:53.73 |    200235    |   213282
       13  | 47:23.58 |  5:09.04 |    213283    |   236461
       14  | 52:32.62 |  5:51.55 |    236462    |   262841
Range status and errors
Selected range
     Filename G:\Rips by Alder\Judas Priest - Firepower [19075807382].wav
     Peak level 100.0 %
     Extraction speed 6.0 X
     Range quality 100.0 %
     Test CRC C0322CD0
     Copy CRC C0322CD0
     Copy OK
No errors occurred
AccurateRip summary
Track  1  not present in database
Track  2  not present in database
Track  3  not present in database
Track  4  not present in database
Track  5  not present in database
Track  6  not present in database
Track  7  not present in database
Track  8  not present in database
Track  9  not present in database
Track 10  not present in database
Track 11  not present in database
Track 12  not present in database
Track 13  not present in database
Track 14  not present in database
None of the tracks are present in the AccurateRip database
End of status report
---- CUETools DB Plugin V2.1.6
[CTDB TOCID: aN0c2_GeGR5QYogncpDGfvu4co0-] found
Submit result: aN0c2_GeGR5QYogncpDGfvu4co0- has been confirmed
Track | CTDB Status
  1   | (14/14) Accurately ripped
  2   | (14/14) Accurately ripped
  3   | (14/14) Accurately ripped
  4   | (14/14) Accurately ripped
  5   | (14/14) Accurately ripped
  6   | (14/14) Accurately ripped
  7   | (14/14) Accurately ripped
  8   | (14/14) Accurately ripped
  9   | (14/14) Accurately ripped
10   | (14/14) Accurately ripped
11   | (14/14) Accurately ripped
12   | (14/14) Accurately ripped
13   | (14/14) Accurately ripped
14   | (12/14) Accurately ripped, or (2/14) differs in 30033 samples @04:58:35,05:00:39,05:01:22,05:02:24-05:02:49
Код:
REM GENRE "Heavy Metal"
REM DATE 2018
REM DISCID D10DB00E
REM COMMENT "ExactAudioCopy v1.2"
PERFORMER "Judas Priest"
TITLE "Firepower [19075807382]"
REM COMPOSER ""
FILE "Judas Priest - Firepower [19075807382].wv" WAVE
  TRACK 01 AUDIO
    TITLE "Firepower"
    PERFORMER "Judas Priest"
    REM COMPOSER ""
    INDEX 01 00:00:00
  TRACK 02 AUDIO
    TITLE "Lightning Strike"
    PERFORMER "Judas Priest"
    REM COMPOSER ""
    INDEX 01 03:27:31
  TRACK 03 AUDIO
    TITLE "Evil Never Dies"
    PERFORMER "Judas Priest"
    REM COMPOSER ""
    INDEX 01 06:56:65
  TRACK 04 AUDIO
    TITLE "Never the Heroes"
    PERFORMER "Judas Priest"
    REM COMPOSER ""
    INDEX 01 11:19:68
  TRACK 05 AUDIO
    TITLE "Necromancer"
    PERFORMER "Judas Priest"
    REM COMPOSER ""
    INDEX 01 15:43:66
  TRACK 06 AUDIO
    TITLE "Children of the Sun"
    PERFORMER "Judas Priest"
    REM COMPOSER ""
    INDEX 01 19:16:70
  TRACK 07 AUDIO
    TITLE "Guardians"
    PERFORMER "Judas Priest"
    REM COMPOSER ""
    INDEX 01 23:17:12
  TRACK 08 AUDIO
    TITLE "Rising from Ruins"
    PERFORMER "Judas Priest"
    REM COMPOSER ""
    INDEX 01 24:23:32
  TRACK 09 AUDIO
    TITLE "Flame Thrower"
    PERFORMER "Judas Priest"
    REM COMPOSER ""
    INDEX 01 29:46:52
  TRACK 10 AUDIO
    TITLE "Spectre"
    PERFORMER "Judas Priest"
    REM COMPOSER ""
    INDEX 01 34:20:60
  TRACK 11 AUDIO
    TITLE "Traitors Gate"
    PERFORMER "Judas Priest"
    REM COMPOSER ""
    INDEX 01 38:46:45
  TRACK 12 AUDIO
    TITLE "No Surrender"
    PERFORMER "Judas Priest"
    REM COMPOSER ""
    INDEX 01 44:29:60
  TRACK 13 AUDIO
    TITLE "Lone Wolf"
    PERFORMER "Judas Priest"
    REM COMPOSER ""
    INDEX 01 47:23:58
  TRACK 14 AUDIO
    TITLE "Sea of Red"
    PERFORMER "Judas Priest"
    REM COMPOSER ""
    INDEX 01 52:32:62
Line-up / Musicians:
Rob Halford / Vocals
Glenn Tipton / Guitars
Ian Hill / Bass-
Scott Travis / Drums
Richie Faulkner / Guitars
--
Download / Скачать

Хотите скачать бесплатно? Зарегистрируйтесь на сайте (ссылка на регистрацию). Pirat.ca - самый быстрый торрент трекер в рунете!

Как скачивать  ·   Что такое торрент  ·   Рейтинг и ограничения

Показать сообщения:    
Ответить на тему

Текущее время: Сегодня 02:20

Часовой пояс: GMT + 4



Вы не можете начинать темы
Вы не можете отвечать на сообщения
Вы не можете редактировать свои сообщения
Вы не можете удалять свои сообщения
Вы не можете голосовать в опросах
Вы не можете прикреплять файлы к сообщениям
Вы не можете скачивать файлы

Майнать ▼